<?xml version="1.0" standalone="no"?>
<!DOCTYPE svg PUBLIC "-//W3C//DTD SVG 1.1//EN" "http://www.w3.org/Graphics/SVG/1.1/DTD/svg11.dtd" >
<svg xmlns="http://www.w3.org/2000/svg" xmlns:xlink="http://www.w3.org/1999/xlink" version="1.1">
<metadata></metadata>
<defs>
<font id="agendaboldcondensed" horiz-adv-x="768" >
<font-face units-per-em="2048" ascent="1464" descent="-584" />
<missing-glyph horiz-adv-x="397" />
<glyph unicode="&#xfb01;" horiz-adv-x="999" d="M20 705v223h119v43q0 213 112.5 332.5t309.5 119.5q114 0 184 -41l-16 -229q-59 41 -143 41q-91 0 -137 -54t-46 -147v-65h498v-928h-268v705h-230v-705h-264v705h-119z" />
<glyph unicode="&#xfb02;" horiz-adv-x="1089" d="M20 705v223h119v22q0 220 127 346.5t355 126.5q97 0 186.5 -29.5t148.5 -76.5v-1012q0 -115 99 -143l-103 -195q-107 11 -184.5 95.5t-77.5 222.5v893q-30 18 -102 18q-86 0 -135.5 -60.5t-49.5 -160.5v-47h148l-16 -223h-132v-705h-264v705h-119z" />
<glyph horiz-adv-x="0" />
<glyph horiz-adv-x="682" />
<glyph unicode=" "  horiz-adv-x="397" />
<glyph unicode="&#x09;" horiz-adv-x="397" />
<glyph unicode="&#xa0;" horiz-adv-x="397" />
<glyph unicode="!" horiz-adv-x="475" d="M90 139q0 39 57 100.5t95 61.5q37 0 94 -62t57 -100q0 -40 -57 -101t-94 -61q-38 0 -95 61t-57 101zM98 1366h281l-31 -981l-219 49z" />
<glyph unicode="&#x22;" horiz-adv-x="665" d="M63 1409h211l-41 -553h-131zM393 1409h209l-39 -553h-131z" />
<glyph unicode="#" horiz-adv-x="811" d="M53 406v145h117l37 205h-101v145h132l73 406h156l-74 -406h125l74 406h156l-76 -406h88v-145h-119l-35 -205h99v-145h-132l-75 -406h-154l76 406h-125l-76 -406h-156l74 406h-84zM328 551h121l36 205h-123z" />
<glyph unicode="$" horiz-adv-x="817" d="M63 975q0 136 71.5 229.5t199.5 118.5v174h141v-168q130 -11 207 -61l-18 -240q-41 30 -101.5 50t-120.5 20q-54 0 -85 -30.5t-31 -78.5q0 -50 31.5 -92.5t105.5 -93.5q293 -202 293 -445q0 -152 -72 -251t-209 -123v-174h-141v167q-142 8 -260 93l18 239 q115 -96 256 -96q64 0 100.5 36t36.5 93q0 59 -33 107t-114 112q-140 93 -207.5 190.5t-67.5 223.5z" />
<glyph unicode="%" horiz-adv-x="1236" d="M49 1034q0 130 73.5 213.5t186.5 83.5t187.5 -83.5t74.5 -213.5q0 -133 -74.5 -217t-187.5 -84t-186.5 84t-73.5 217zM147 49l822 1288l118 -77l-819 -1291zM227 1034q0 -61 24 -102t58 -41t58 41t24 102t-24 100.5t-58 39.5t-58 -39.5t-24 -100.5zM666 276 q0 130 74 213.5t188 83.5q113 0 186.5 -83.5t73.5 -213.5q0 -133 -73.5 -217t-186.5 -84q-115 0 -188.5 84t-73.5 217zM846 276q0 -61 24 -101t58 -40q33 0 57.5 40.5t24.5 100.5q0 61 -24.5 100.5t-57.5 39.5q-34 0 -58 -39t-24 -101z" />
<glyph unicode="&#x26;" horiz-adv-x="1079" d="M49 328q0 121 46.5 204t133.5 154q-127 167 -127 309q0 151 97 243.5t229 92.5q139 0 239.5 -93t100.5 -249q0 -185 -193 -346l166 -203q77 128 115 254l162 -174q-42 -143 -123 -266l209 -254h-305l-68 82q-147 -105 -317 -105q-164 0 -264.5 100.5t-100.5 250.5z M291 328q0 -59 40 -97t95 -38q72 0 158 63l-203 242q-90 -60 -90 -170zM334 999q0 -65 90 -176q53 39 83 85.5t30 86.5q0 55 -31.5 94t-75.5 39q-40 0 -68 -37.5t-28 -91.5z" />
<glyph unicode="'" horiz-adv-x="337" d="M63 1409h211l-41 -553h-131z" />
<glyph unicode="(" horiz-adv-x="548" d="M66 506q0 516 188 936l272 -53q-91 -196 -140.5 -432t-49.5 -478q0 -258 44.5 -481t141.5 -447l-272 58q-95 219 -139.5 427t-44.5 470z" />
<glyph unicode=")" horiz-adv-x="548" d="M23 -403q90 196 140 431.5t50 475.5q0 256 -45 479.5t-141 450.5l272 -62q94 -218 139 -426t45 -469q0 -516 -190 -936z" />
<glyph unicode="*" horiz-adv-x="792" d="M51 1010l25 192l239 -112l-14 270l191 45l-13 -311l201 100l100 -172l-254 -82l146 -215l-133 -145l-142 262l-121 -230l-176 84l170 244z" />
<glyph unicode="+" horiz-adv-x="774" d="M59 463v207h217v243h222v-243h219v-207h-219v-246h-222v246h-217z" />
<glyph unicode="," horiz-adv-x="403" d="M33 -272q51 61 87.5 137t47.5 139q-32 6 -74.5 55t-42.5 82q0 41 57.5 100.5t94.5 59.5q34 0 92.5 -59t58.5 -101q0 -83 -71.5 -212t-161.5 -216z" />
<glyph unicode="-" horiz-adv-x="565" d="M59 463v207h447v-207h-447z" />
<glyph unicode="." horiz-adv-x="403" d="M51 139q0 39 57 100.5t95 61.5q37 0 94 -62t57 -100q0 -40 -57 -101t-94 -61q-38 0 -95 61t-57 101z" />
<glyph unicode="/" horiz-adv-x="1064" d="M39 78l823 1288l164 -113l-823 -1292z" />
<glyph unicode="0" horiz-adv-x="983" d="M61 655q0 326 118 501t310 175t311.5 -175t119.5 -501q0 -328 -119.5 -504t-311.5 -176t-310 175.5t-118 504.5zM334 655q0 -206 44 -324t111 -118q69 0 114.5 117.5t45.5 324.5q0 203 -46 322t-114 119q-67 0 -111 -119t-44 -322z" />
<glyph unicode="1" horiz-adv-x="589" d="M29 1051l18 237l428 41v-1329h-264v1069z" />
<glyph unicode="2" horiz-adv-x="817" d="M45 0v74q167 210 285.5 440.5t118.5 366.5q0 104 -43.5 159.5t-114.5 55.5q-100 0 -199 -78l-18 235q107 78 250 78q177 0 286 -109.5t109 -318.5q0 -143 -83 -335.5t-187 -340.5h325v-227h-729z" />
<glyph unicode="3" horiz-adv-x="737" d="M49 264q79 -57 180 -57q73 0 125 52.5t52 146.5q0 76 -47.5 133t-110.5 57q-21 0 -51 -10l-19 215q69 23 111.5 68t42.5 104q0 57 -30 94t-83 37q-63 0 -137 -41l-16 221q89 47 202 47q149 0 241.5 -89t92.5 -228q0 -90 -37.5 -159.5t-93.5 -98.5q86 -29 149.5 -123 t63.5 -234q0 -203 -114.5 -312.5t-317.5 -109.5q-97 0 -184 46z" />
<glyph unicode="4" horiz-adv-x="890" d="M14 545l463 762h248v-770h113v-211h-113v-326h-248v326h-430zM252 537h225v266q0 43 8 133l-4 2q-46 -98 -71 -137z" />
<glyph unicode="5" horiz-adv-x="774" d="M74 268q83 -59 190 -59q76 0 126 53.5t50 138.5q0 90 -50.5 146.5t-127.5 56.5q-88 0 -160 -35l17 738h522l-16 -228h-248l-6 -266q10 2 30 2q125 0 221.5 -118t96.5 -294q0 -198 -109 -312t-309 -114q-61 0 -118 13t-89 33z" />
<glyph unicode="6" horiz-adv-x="909" d="M61 457q0 258 126 497.5t329 391.5l268 -82q-116 -72 -221.5 -197.5t-156.5 -245.5q30 27 81 27q66 0 131 -29.5t118 -83t85.5 -137t32.5 -182.5q0 -196 -108.5 -317.5t-284.5 -121.5q-175 0 -287.5 129t-112.5 351zM330 428q0 -96 40.5 -155.5t96.5 -59.5q53 0 88 55 t35 142q0 92 -38 149t-97 57q-90 0 -117 -67q-8 -33 -8 -121z" />
<glyph unicode="7" horiz-adv-x="827" d="M43 1079v228h776l-420 -1307h-276l350 1079h-430z" />
<glyph unicode="8" horiz-adv-x="925" d="M61 371q0 115 57.5 203t123.5 124q-59 39 -101.5 118.5t-42.5 170.5q0 154 100 249t263 95q164 0 265 -96.5t101 -255.5q0 -85 -43.5 -164t-99.5 -115q67 -35 123.5 -124t56.5 -205q0 -182 -109.5 -289t-291.5 -107q-181 0 -291.5 107t-110.5 289zM313 371q0 -76 43 -125 t101 -49q60 0 101.5 49t41.5 125q0 74 -45 124.5t-104 73.5q-55 -25 -96.5 -74.5t-41.5 -123.5zM350 975q0 -117 121 -168q111 52 111 168q0 64 -33.5 103.5t-83.5 39.5q-48 0 -81.5 -40t-33.5 -103z" />
<glyph unicode="9" horiz-adv-x="909" d="M55 893q0 195 109.5 316.5t284.5 121.5q176 0 287.5 -129t111.5 -350q0 -259 -125.5 -499.5t-329.5 -391.5l-268 82q118 73 223 197.5t156 244.5q-30 -24 -82 -24q-66 0 -130.5 29.5t-117.5 82.5t-86 137t-33 183zM319 899q0 -92 38.5 -150.5t97.5 -58.5q87 0 116 70 q9 37 9 119q0 97 -40.5 157t-97.5 60q-52 0 -87.5 -55.5t-35.5 -141.5z" />
<glyph unicode=":" horiz-adv-x="403" d="M51 139q0 39 57 100.5t95 61.5q37 0 94 -62t57 -100q0 -40 -57 -101t-94 -61q-38 0 -95 61t-57 101zM51 788q0 40 57 101t95 61q37 0 94 -61t57 -101t-57 -100.5t-94 -60.5q-38 0 -95 60.5t-57 100.5z" />
<glyph unicode=";" horiz-adv-x="403" d="M33 -272q51 61 87.5 137t47.5 139q-32 6 -74.5 55t-42.5 82q0 41 57.5 100.5t94.5 59.5q34 0 92.5 -59t58.5 -101q0 -83 -71.5 -212t-161.5 -216zM51 788q0 40 57 101t95 61q37 0 94 -61t57 -101t-57 -100.5t-94 -60.5q-38 0 -95 60.5t-57 100.5z" />
<glyph unicode="&#x3c;" horiz-adv-x="602" d="M45 567l322 363l145 -152l-182 -211l182 -211l-143 -149z" />
<glyph unicode="=" horiz-adv-x="774" d="M59 272v207h658v-207h-658zM59 653v205h658v-205h-658z" />
<glyph unicode="&#x3e;" horiz-adv-x="602" d="M90 356l182 211l-182 211l146 152l321 -361l-321 -362z" />
<glyph unicode="?" horiz-adv-x="710" d="M41 1309q41 37 103 60.5t135 23.5q166 0 268 -99t102 -262q0 -95 -36.5 -174t-120.5 -192q-74 -101 -74 -209q0 -43 6 -78l-225 49q-13 67 -13 100q0 77 25.5 144.5t85.5 152.5q41 58 59.5 102t18.5 97q0 57 -33 95t-90 38q-107 0 -195 -88zM168 141q0 39 56.5 100.5 t94.5 61.5q39 0 96.5 -61.5t57.5 -100.5q0 -40 -57.5 -103t-96.5 -63q-38 0 -94.5 63t-56.5 103z" />
<glyph unicode="@" horiz-adv-x="1294" d="M61 541q0 216 90.5 398t247.5 288t344 106q224 0 357 -152.5t133 -394.5q0 -129 -37 -243.5t-113 -190.5t-176 -76q-46 0 -83 29.5t-44 83.5q-73 -113 -207 -113q-82 0 -141 74.5t-59 194.5q0 108 34 200t89 151.5t124 92.5t140 33q61 0 111.5 -21.5t76.5 -54.5l-47 -409 q-2 -18 -2 -48q0 -47 31 -47q23 0 47.5 27.5t44.5 73.5t32.5 112t12.5 136q0 182 -92.5 286.5t-247.5 104.5q-96 0 -187 -49.5t-160.5 -133.5t-112 -204t-42.5 -252q0 -202 91.5 -308t230.5 -106q114 0 186 66l-20 -166q-65 -52 -185 -52q-213 0 -340 153.5t-127 410.5z M557 551q0 -53 17.5 -82t46.5 -29q39 0 71 48t41 124l29 232q-17 10 -37 10q-62 0 -115 -91.5t-53 -211.5z" />
<glyph unicode="A" horiz-adv-x="1052" d="M14 0l408 1313h211l405 -1313h-278l-80 287h-322l-79 -287h-265zM416 502h207l-72 256q-19 59 -31 129h-4q-7 -55 -31 -129z" />
<glyph unicode="B" horiz-adv-x="942" d="M94 0v1307h363q144 0 242 -93.5t98 -250.5q0 -69 -28.5 -136t-72.5 -92q73 -26 133 -119.5t60 -214.5q0 -184 -111.5 -292.5t-281.5 -108.5h-402zM350 215h107q65 0 111 49t46 139q0 89 -46.5 140t-110.5 51h-107v-379zM350 805h72q47 0 82 37.5t35 107.5t-35 109t-82 39 h-72v-293z" />
<glyph unicode="C" horiz-adv-x="970" d="M61 653q0 128 31 238.5t85.5 190t127 136.5t156 85t172.5 28q180 0 289 -71l-19 -252q-93 73 -231 73q-141 0 -231.5 -119.5t-90.5 -308.5t91 -307.5t237 -118.5q158 0 242 74l-21 -264q-92 -62 -266 -62q-112 0 -214.5 45.5t-182.5 129t-127.5 214.5t-47.5 289z" />
<glyph unicode="D" horiz-adv-x="1099" d="M94 0v1307h373q117 0 219.5 -43t180.5 -123.5t123.5 -206.5t45.5 -281t-45.5 -281t-123.5 -206t-180.5 -123t-219.5 -43h-373zM367 244h71q135 0 224.5 104.5t89.5 304.5t-89.5 305t-224.5 105h-71v-819z" />
<glyph unicode="E" horiz-adv-x="806" d="M94 0v1307h639v-236h-358v-297h291v-237h-291v-301h401v-236h-682z" />
<glyph unicode="F" horiz-adv-x="776" d="M96 0v1307h658v-236h-375v-297h305v-237h-305v-537h-283z" />
<glyph unicode="G" horiz-adv-x="1107" d="M61 653q0 159 48.5 290t129.5 214.5t183.5 128.5t214.5 45q103 0 188 -26.5t138 -69.5l-21 -254q-115 100 -270 100q-143 0 -236.5 -120.5t-93.5 -313.5q0 -186 88 -307t219 -121q77 0 125 31v229h-174v221h428v-598q-137 -127 -391 -127q-114 0 -217 45.5t-183.5 129 t-128 214t-47.5 289.5z" />
<glyph unicode="H" horiz-adv-x="1128" d="M94 0v1307h281v-531h379v531h280v-1307h-280v532h-379v-532h-281z" />
<glyph unicode="I" horiz-adv-x="499" d="M109 0v1307h282v-1307h-282z" />
<glyph unicode="J" horiz-adv-x="540" d="M-74 -84q116 27 170 107t54 245v1039h282v-1065q0 -437 -383 -531z" />
<glyph unicode="K" horiz-adv-x="1001" d="M94 0v1307h279v-586l307 586h299l-350 -643l368 -664h-319l-305 567v-567h-279z" />
<glyph unicode="L" horiz-adv-x="808" d="M94 0v1307h281v-1063h418v-244h-699z" />
<glyph unicode="M" horiz-adv-x="1456" d="M74 0l94 1307h227l230 -568q67 -164 104 -286h4q53 164 103 286l229 568h227l97 -1307h-271l-33 461q-8 137 -8 206v25h-4q-35 -112 -86 -235l-188 -459h-135l-193 459q-43 102 -84 235h-4q0 -132 -8 -231l-35 -461h-266z" />
<glyph unicode="N" horiz-adv-x="1185" d="M94 0v1307h221l340 -480q115 -162 164 -243h4q-6 114 -6 239v484h277v-1317h-158l-385 526q-115 161 -184 270l-5 -2q7 -154 7 -262v-522h-275z" />
<glyph unicode="O" horiz-adv-x="1257" d="M61 655q0 150 45 278t122 214.5t181 135t220 48.5q115 0 218.5 -48.5t181 -135t122.5 -214.5t45 -278q0 -152 -45 -280.5t-122.5 -215.5t-180.5 -135.5t-219 -48.5t-220 48.5t-181 135.5t-122 215.5t-45 280.5zM350 655q0 -185 82.5 -304.5t196.5 -119.5 q113 0 195.5 119.5t82.5 304.5q0 182 -83 302t-195 120q-113 0 -196 -119.5t-83 -302.5z" />
<glyph unicode="P" horiz-adv-x="890" d="M94 0v1307h400q155 0 261.5 -107t106.5 -280q0 -171 -107 -280.5t-261 -109.5h-127v-530h-273zM367 760h92q53 0 92 42.5t39 117.5t-39 118t-92 43h-92v-321z" />
<glyph unicode="Q" horiz-adv-x="1257" d="M61 653q0 151 45 279.5t122 215.5t181 136t220 49q115 0 218.5 -49t181 -136t122.5 -215.5t45 -279.5q0 -210 -93 -374.5t-229 -227.5v-4q22 -4 43.5 -15t79.5 -44q83 -49 170 -49q53 0 97 16l-138 -219q-14 -4 -43 -4q-147 0 -278 90q-113 77 -260 162 q-100 17 -187.5 71t-153.5 138t-104.5 203t-38.5 257zM350 653q0 -182 83.5 -302t195.5 -120q111 0 194.5 120t83.5 302q0 183 -83.5 303.5t-194.5 120.5q-112 0 -195.5 -120t-83.5 -304z" />
<glyph unicode="R" horiz-adv-x="1003" d="M94 0v1307h406q154 0 261 -107.5t107 -279.5q0 -104 -46 -189.5t-117 -124.5l329 -606h-307l-278 530h-82v-530h-273zM367 760h96q53 0 92 42.5t39 117.5t-39 118t-92 43h-96v-321z" />
<glyph unicode="S" horiz-adv-x="831" d="M49 350q142 -129 305 -129q70 0 108 32.5t38 88.5q0 59 -39.5 111.5t-122.5 107.5q-134 88 -198 187t-64 221q0 159 101 261.5t274 102.5q158 0 251 -67l-18 -246q-37 29 -92.5 49.5t-110.5 20.5q-63 0 -96 -28t-33 -75q0 -50 33 -91t121 -99q278 -186 278 -430 q0 -183 -104.5 -287.5t-300.5 -104.5q-190 0 -307 95z" />
<glyph unicode="T" horiz-adv-x="931" d="M16 1077v230h899v-232h-307v-1075h-282v1077h-310z" />
<glyph unicode="U" horiz-adv-x="1122" d="M94 393v914h281v-891q0 -87 51.5 -139t136.5 -52t138 51.5t53 137.5v893h274v-914q0 -190 -132.5 -303t-334.5 -113t-334.5 113t-132.5 303z" />
<glyph unicode="V" horiz-adv-x="1001" d="M-2 1307h287l155 -549q39 -139 66 -277h4q34 173 63 277l158 549h264l-383 -1313h-231z" />
<glyph unicode="W" horiz-adv-x="1552" d="M4 1307h270l136 -527q35 -143 53 -262h4q22 127 55 262l135 527h250l135 -527q37 -150 54 -262h4q17 111 55 262l137 527h252l-356 -1313h-193l-151 557q-50 184 -68 280h-4q-28 -153 -65 -280l-154 -557h-193z" />
<glyph unicode="X" horiz-adv-x="1024" d="M18 0l334 668l-317 639h297l127 -258q37 -68 57 -127h4q10 30 55 127l127 258h283l-313 -635l329 -672h-296l-136 281q-41 89 -61 141h-4q-24 -62 -66 -141l-137 -281h-283z" />
<glyph unicode="Y" horiz-adv-x="1046" d="M-2 1307h295l160 -308q54 -101 77 -155h5q64 130 77 155l158 308h274l-382 -729v-578h-277v571z" />
<glyph unicode="Z" horiz-adv-x="868" d="M33 0v68l276 665q61 148 146 330l-2 2h-385v242h747v-68l-276 -668q-22 -54 -144 -327l2 -2h437v-242h-801z" />
<glyph unicode="[" horiz-adv-x="616" d="M84 -422v1823h487v-227h-221v-1371h221v-225h-487z" />
<glyph unicode="\" horiz-adv-x="1071" d="M43 1253l162 113l823 -1288l-164 -117z" />
<glyph unicode="]" horiz-adv-x="616" d="M47 -197h225v1371h-225v227h488v-1823h-488v225z" />
<glyph unicode="^" horiz-adv-x="681" d="M45 1147q80 40 159.5 118.5t137.5 176.5q56 -97 136 -175.5t159 -119.5l-121 -127q-112 62 -174 141q-70 -83 -174 -141z" />
<glyph unicode="_" horiz-adv-x="946" d="M-2 -231h952v-207h-952v207z" />
<glyph unicode="`" d="M184 1174l43 198q73 -85 179 -149.5t210 -98.5l-112 -116q-100 31 -173 67t-147 99z" />
<glyph unicode="a" horiz-adv-x="845" d="M47 268q0 132 77.5 214t207.5 96l133 14v37q0 106 -125 106q-62 0 -121 -19t-96 -46l-19 215q41 29 112.5 47t145.5 18q170 0 267.5 -94t97.5 -266v-291q0 -110 94 -131l-98 -193q-122 10 -170 101q-77 -99 -217 -99q-125 0 -207 77.5t-82 213.5zM283 266q0 -38 22.5 -65 t56.5 -27q44 0 76.5 35t32.5 86v111l-88 -9q-47 -4 -73.5 -40t-26.5 -91z" />
<glyph unicode="b" horiz-adv-x="913" d="M86 74v1335h262v-475q37 16 94 16q174 0 297 -134.5t123 -342.5q0 -231 -124 -363.5t-328 -132.5q-99 0 -183 27t-141 70zM348 229q32 -18 74 -18q82 0 129 70t47 186q0 110 -49.5 180t-118.5 70q-48 0 -82 -23v-465z" />
<glyph unicode="c" d="M51 463q0 111 34.5 204t93 154.5t135.5 95t163 33.5q146 0 238 -57l-19 -236q-78 56 -176 56q-86 0 -141 -68.5t-55 -181.5q0 -112 58.5 -181t147.5 -69q97 0 177 53l-19 -241q-74 -48 -209 -48q-179 0 -303.5 133.5t-124.5 352.5z" />
<glyph unicode="d" horiz-adv-x="950" d="M51 457q0 219 116 356t300 137q83 0 135 -30v489h260v-1409h-207l-6 66q-28 -40 -83 -63t-128 -23q-71 0 -139.5 33t-124 92t-89.5 151t-34 201zM315 465q0 -110 46.5 -181t117.5 -71q75 0 123 51v410q-46 43 -123 43q-70 0 -117 -71.5t-47 -180.5z" />
<glyph unicode="e" horiz-adv-x="854" d="M49 469q0 216 116.5 348.5t289.5 132.5q107 0 188.5 -51.5t122.5 -133t41 -177.5q0 -44 -8 -94l-111 -109h-369q12 -81 69.5 -140t152.5 -59q120 0 215 72l-19 -227q-85 -54 -231 -54q-200 0 -328.5 135t-128.5 357zM313 571h248q0 3 1 12.5t1 12.5q0 62 -30 107t-78 45 q-52 0 -92.5 -51t-49.5 -126z" />
<glyph unicode="f" horiz-adv-x="636" d="M20 705v223h119v41q0 223 109.5 338.5t296.5 115.5q87 0 141 -28l-14 -228q-49 27 -107 27q-76 0 -119 -53t-43 -142v-71h193l-16 -223h-177v-705h-264v705h-119z" />
<glyph unicode="g" horiz-adv-x="837" d="M39 -113q0 97 43.5 164t110.5 92l-95 101q6 39 32 74t60 55q-114 89 -114 245q0 150 86.5 242t240.5 92q58 0 121 -18q63 -19 117 -19q73 0 133 33l14 -215q-23 -18 -60 -18h-11q14 -31 14 -88q0 -133 -74 -220.5t-194 -99.5q-53 -3 -53 -37q0 -25 28 -34l107 -37 q120 -40 185 -122t65 -200q0 -144 -102.5 -237t-274.5 -93q-171 0 -275 97t-104 243zM279 -119q0 -61 36 -100t101 -39q62 0 97.5 36t35.5 91q0 47 -21.5 82t-60.5 45l-86 24q-46 -6 -74 -42t-28 -97zM305 627q0 -60 28 -99t70 -39t71.5 39.5t29.5 98.5q0 60 -29 98.5 t-72 38.5q-42 0 -70 -39t-28 -98z" />
<glyph unicode="h" horiz-adv-x="921" d="M86 0v1409h266v-1v-1v-1v-1v-1v-1v-1v-1v-1v-1v-1v-1v-1v-1v-1v-1v-1v-1v-1v-1v-1v-1v-1v-1v-1v-1v-1v-1v-1v-1v-1v-1v-1v-1v-1v-1v-1v-1v-1v-1v-1v-1v-1v-1v-1v-1v-1v-1v-1v-1v-1v-1v-1v-1v-1v-1v-1v-1v-1v-1v-1v-1v-1v-1v-1v-1v-1v-1v-1v-1v-1v-1v-1v-1v-1v-1v-1v-1v-1 v-1v-1v-1v-1v-1v-1v-1v-1v-1v-1v-1v-1v-1v-1v-1v-1v-1v-1v-1v-1v-1v-2v-1v-1v-1v-1v-1v-1v-1v-1v-1v-1v-2v-1v-1v-1v-1v-1v-1v-2v-1v-1v-1v-1v-1v-1v-2v-1v-1v-1v-1v-2v-1v-1v-1v-1v-2v-1v-1v-1v-1v-2v-1v-1v-1v-2v-1v-1v-1v-2v-1v-1v-1v-2v-1v-1v-1v-2v-1v-1v-2v-1v-1v-1 v-2v-1v-1v-2v-1v-1v-2v-1v-1v-2v-1v-1v-2v-1v-1v-2v-1v-1v-2v-1v-2v-1v-1v-2v-1v-1v-2v-1v-2v-1v-1v-2v-1v-2v-1v-1v-2v-1v-2v-1v-2v-1v-1v-2v-1v-2v-1v-2v-1v-2v-1v-2v-1v-1v-2v-1v-2v-1v-2v-1v-2v-1v-2v-1v-2v-1v-2v-1v-2v-1v-2v-1v-2v-1v-2v-1v-2v-2v-1v-2v-1v-2v-1v-2 v-1v-2v-2v-1v-2v-1v-2v-1v-2v-2v-1v-2v-1v-2v-1v-2v-2v-1v-2v-1v-2v-2v-1v-2v-2v-1v-2v-1v-2v-2v-1v-2v-2v-1v-2v-2v-1v-2v-1v-2v-2v-1v-2v-2v-1v-2v-2v-1v-2v-2v-2v-1v-2v-2v-1v-2v-2v-1v-2v-2v-2v-1v-2v-2v-1v-2v-2v-2v-1v-2v-2v-2v-1v-2v-2v-2v-1v-2v-2v-2v-1v-2v-2v-2 v-2v-1v-2v-2v-2v-1v-2v-2v-2v-2v-1v-2v-2v-2v-2v-2v-1v-2v-2v-2v-2v-2v-1v-2v-2v-2v-2v-2v-2v-1v-2v-2v-2v-2v-2v-2v-1v-2v-2v-2v-2v-2v-2v-2v-2v-2v-1v-2v-2v-2v-9q76 76 201 76q133 0 212 -84t79 -225v-639h-269v586q0 54 -28 88.5t-80 34.5t-83.5 -36t-31.5 -93v-580 h-266z" />
<glyph unicode="i" horiz-adv-x="466" d="M96 1214q0 37 51.5 92.5t85.5 55.5t86 -55.5t52 -92.5t-52 -92t-86 -55t-85.5 55t-51.5 92zM98 0v928h271v-928h-271z" />
<glyph unicode="j" horiz-adv-x="464" d="M-51 -260q77 22 113 83.5t36 174.5v930h271v-951q0 -169 -85 -280.5t-221 -145.5zM94 1214q0 37 52 92.5t87 55.5q33 0 84.5 -56t51.5 -92t-51.5 -91.5t-84.5 -55.5q-35 0 -87 55t-52 92z" />
<glyph unicode="k" horiz-adv-x="880" d="M86 0v1409h266v-887l223 406h279l-250 -449l275 -479h-306l-221 401v-401h-266z" />
<glyph unicode="l" horiz-adv-x="501" d="M100 283v1126h269v-1108q0 -59 26 -95.5t70 -49.5l-115 -191q-99 12 -174.5 96.5t-75.5 221.5z" />
<glyph unicode="m" horiz-adv-x="1388" d="M78 0v928h235l9 -86q30 45 86 75.5t133 30.5q152 0 225 -112q33 49 101.5 80.5t152.5 31.5q138 0 214.5 -82t76.5 -217v-649h-269v598q0 50 -28 79.5t-74 29.5q-50 0 -80.5 -31t-30.5 -84v-592h-268v598q0 51 -28 80t-78 29q-48 0 -78.5 -31t-30.5 -84v-592h-268z" />
<glyph unicode="n" horiz-adv-x="915" d="M78 0v928h235l9 -86q68 106 225 106q133 0 212 -84t79 -225v-639h-269v586q0 54 -28 88.5t-80 34.5t-83.5 -36t-31.5 -93v-580h-268z" />
<glyph unicode="o" horiz-adv-x="948" d="M51 463q0 215 119 351t303 136t304 -136t120 -351q0 -214 -120 -350t-304 -136t-303 136t-119 350zM315 463q0 -111 46.5 -182.5t113.5 -71.5q65 0 111.5 72t46.5 182q0 111 -46.5 184.5t-111.5 73.5q-67 0 -113.5 -73t-46.5 -185z" />
<glyph unicode="p" horiz-adv-x="950" d="M86 -432v1360h209l8 -66q27 40 81.5 63t127.5 23q71 0 139.5 -33t124 -92t89.5 -151t34 -201q0 -219 -117 -356.5t-299 -137.5q-82 0 -135 31v-440h-262zM348 254q46 -43 121 -43q71 0 118.5 71.5t47.5 180.5q0 110 -47 181t-119 71q-73 0 -121 -51v-410z" />
<glyph unicode="q" horiz-adv-x="913" d="M51 467q0 220 120 351.5t302 131.5q126 0 207 -43l65 47h82v-1386h-262v426q-43 -17 -92 -17q-183 0 -302.5 136t-119.5 354zM315 467q0 -114 49 -185t119 -71q50 0 82 22v461q-35 23 -86 23q-70 0 -117 -70.5t-47 -179.5z" />
<glyph unicode="r" horiz-adv-x="661" d="M92 0v928h246l6 -140q66 152 270 152l17 -252h-23q-107 0 -178.5 -81t-71.5 -224v-383h-266z" />
<glyph unicode="s" horiz-adv-x="671" d="M43 291q43 -45 108 -74t132 -29q40 0 62 19.5t22 50.5t-20 55.5t-66 53.5q-108 67 -160.5 140.5t-52.5 162.5q0 127 82.5 203.5t216.5 76.5q64 0 118.5 -15.5t81.5 -35.5l-16 -215q-62 55 -162 55q-32 0 -52 -16.5t-20 -42.5q0 -53 91 -107q217 -125 217 -307 q0 -126 -82.5 -207.5t-239.5 -81.5q-73 0 -138 20.5t-104 49.5z" />
<glyph unicode="t" horiz-adv-x="673" d="M20 705v223h132v174l258 96v-270h235l-16 -223h-215v-375q0 -55 25.5 -84t70.5 -29q49 0 80 19l-19 -224q-41 -24 -131 -24q-132 0 -213.5 83.5t-81.5 213.5v420h-125z" />
<glyph unicode="u" horiz-adv-x="915" d="M78 289v639h268v-586q0 -53 28.5 -88t80.5 -35t83 35.5t31 93.5v580h269v-928h-236l-6 86q-68 -106 -227 -106q-132 0 -211.5 84t-79.5 225z" />
<glyph unicode="v" horiz-adv-x="841" d="M23 928h256l102 -342q31 -104 43 -170h4q19 91 43 170l104 342h244l-299 -934h-198z" />
<glyph unicode="w" horiz-adv-x="1284" d="M29 928h247l93 -340q28 -106 37 -168h4q22 118 36 168l95 340h211l96 -338q15 -54 37 -170h4q12 86 37 170l94 338h233l-274 -934h-184l-105 362q-32 112 -45 183h-4q-14 -64 -47 -183l-102 -362h-187z" />
<glyph unicode="x" horiz-adv-x="806" d="M25 0l227 465l-219 463h268l76 -160q31 -76 31 -78h4q19 42 37 80l75 158h248l-217 -445l227 -483h-268l-84 180q-27 68 -33 92h-4q-4 -15 -11 -31.5t-15 -34.5t-11 -26l-86 -180h-245z" />
<glyph unicode="y" horiz-adv-x="866" d="M23 928h260l108 -350q21 -71 45 -177h4q18 91 43 174l111 353h250l-269 -848q-73 -234 -171.5 -360.5t-241.5 -172.5l-109 183q91 36 148.5 103t107.5 212z" />
<glyph unicode="z" horiz-adv-x="737" d="M43 0v51l178 432q71 166 98 215l-2 4h-241v226h586v-51l-181 -437q-54 -126 -98 -211l2 -4h299v-225h-641z" />
<glyph unicode="{" horiz-adv-x="663" d="M16 492q154 112 154 372q0 251 109.5 395t312.5 144l39 -219q-104 0 -150.5 -80.5t-46.5 -214.5q0 -275 -137 -397q137 -120 137 -398q0 -301 197 -301l-39 -221q-203 0 -312.5 145.5t-109.5 403.5q0 259 -154 371z" />
<glyph unicode="|" horiz-adv-x="419" d="M109 -432v1841h202v-1841h-202z" />
<glyph unicode="}" horiz-adv-x="663" d="M35 -207q194 0 194 301q0 278 140 398q-140 122 -140 397q0 134 -46 214.5t-148 80.5l39 219q201 0 310.5 -144t109.5 -395q0 -258 153 -372q-153 -114 -153 -371q0 -258 -109 -403.5t-311 -145.5z" />
<glyph unicode="~" horiz-adv-x="700" d="M68 424l43 186q142 99 274 111l21 -135q102 16 229 106l-41 -186q-131 -98 -275 -109l-22 131q-107 -15 -229 -104z" />
<glyph unicode="&#xa1;" horiz-adv-x="475" d="M82 1169q0 40 56.5 101t94.5 61t95 -61t57 -101t-57 -100.5t-95 -60.5t-94.5 60.5t-56.5 100.5zM94 -59l33 983l219 -50l31 -933h-283z" />
<glyph unicode="&#xa2;" d="M51 836q0 198 101.5 326t257.5 155v180h139v-178q97 -11 166 -53l-19 -238q-75 57 -176 57q-86 0 -141 -68.5t-55 -182.5q0 -111 58.5 -179.5t147.5 -68.5q92 0 177 53l-19 -242q-47 -32 -139 -45v-168h-139v172q-156 27 -257.5 156t-101.5 324z" />
<glyph unicode="&#xa3;" horiz-adv-x="759" d="M23 571v150h114v135q0 232 110 352.5t298 120.5q81 0 135 -33l-14 -223q-52 27 -113 27q-68 0 -109 -55.5t-41 -151.5v-172h213l-12 -150h-201v-82q0 -163 -38 -260q57 11 122 11q126 0 230 -33l-12 -225q-84 34 -236 34q-145 0 -233 -32l-187 102q88 163 88 410v75h-114 z" />
<glyph unicode="&#xa4;" horiz-adv-x="862" d="M55 268l115 129q-41 74 -41 170q0 90 37 162q1 0 -27 33.5t-56 67.5l-28 34l119 119q107 -113 109 -123q65 47 149 47q79 0 143 -45l109 123l119 -119l-111 -131q41 -71 41 -168q0 -96 -43 -174l113 -129l-121 -119l-111 123q-62 -41 -139 -41q-78 0 -145 45l-111 -125z M285 567q0 -77 42.5 -131.5t104.5 -54.5t106 55t44 131q0 75 -44.5 130t-105.5 55q-62 0 -104.5 -54.5t-42.5 -130.5z" />
<glyph unicode="&#xa5;" horiz-adv-x="1034" d="M-2 1307h291l160 -308q54 -101 77 -155h4q53 108 78 155l158 308h266l-246 -471h113v-152h-199l-53 -104v-23h252v-151h-252v-406h-262v406h-250v151h250v14l-57 113h-193v152h109z" />
<glyph unicode="&#xa6;" horiz-adv-x="419" d="M109 367h202v-799h-202v799zM109 610v799h202v-799h-202z" />
<glyph unicode="&#xa7;" horiz-adv-x="800" d="M70 971q0 156 100 257t266 101t254 -63l-18 -246q-90 70 -203 70q-62 0 -94.5 -28.5t-32.5 -76.5q0 -52 33 -106l336 -404l-39 -313q65 -124 65 -244q0 -156 -100 -257t-266 -101q-159 0 -254 65l16 246q99 -70 205 -70q63 0 95 28t32 75q0 57 -33 106l-336 400l39 317 q-65 124 -65 244zM238 565l311 -375l20 138l-313 372z" />
<glyph unicode="&#xa8;" d="M100 1137q0 31 46 81t75 50t75 -50t46 -81t-46 -80t-75 -49t-75 49t-46 80zM428 1137q0 31 45 81t74 50q30 0 76.5 -50t46.5 -81t-46.5 -80t-76.5 -49q-29 0 -74 49t-45 80z" />
<glyph unicode="&#xa9;" horiz-adv-x="1040" d="M51 512q0 236 134 386.5t335 150.5q200 0 333.5 -151t133.5 -386q0 -234 -133.5 -385.5t-333.5 -151.5q-201 0 -335 151.5t-134 385.5zM180 512q0 -184 94.5 -302t245.5 -118q149 0 244.5 118.5t95.5 301.5t-95.5 301.5t-244.5 118.5q-151 0 -245.5 -118t-94.5 -302z M303 508q0 131 73 211t179 80q88 0 139 -41l-12 -152q-43 37 -104 37q-43 0 -71 -37.5t-28 -99.5q0 -61 28.5 -97t74.5 -36q59 0 106 37l-14 -160q-46 -31 -117 -31q-107 0 -180.5 79.5t-73.5 209.5z" />
<glyph unicode="&#xaa;" horiz-adv-x="698" d="M51 793q0 101 60.5 167t164.5 76l105 8v29q0 80 -96 80q-51 0 -99 -15t-77 -38l-13 178q32 23 89.5 38t117.5 15q137 0 216 -77t79 -216v-221q0 -90 78 -102l-80 -160q-98 3 -141 74q-65 -74 -172 -74q-101 0 -166.5 63t-65.5 175zM231 299q0 32 45 81.5t74 49.5 t75 -49.5t46 -81.5q0 -30 -46 -79.5t-75 -49.5t-74 49.5t-45 79.5zM246 786q0 -30 16.5 -50.5t42.5 -20.5q33 0 57.5 27t24.5 67v86l-70 -6q-34 -4 -52.5 -33t-18.5 -70z" />
<glyph unicode="&#xab;" horiz-adv-x="862" d="M-10 567q178 132 309 365l125 -133q-54 -132 -150 -232q97 -100 150 -231l-125 -133q-133 236 -309 364zM385 567q185 135 311 365l125 -133q-55 -134 -149 -232q95 -99 149 -231l-125 -133q-127 233 -311 364z" />
<glyph unicode="&#xac;" horiz-adv-x="921" d="M59 463v207h777v-408h-215v201h-562z" />
<glyph unicode="&#xad;" horiz-adv-x="565" d="M59 463v207h447v-207h-447z" />
<glyph unicode="&#xae;" horiz-adv-x="813" d="M51 930q0 174 102 287.5t255 113.5q150 0 252 -114t102 -287q0 -174 -102 -288t-252 -114q-153 0 -255 114t-102 288zM139 930q0 -140 76.5 -231t192.5 -91q114 0 190 91.5t76 230.5q0 140 -75.5 229.5t-190.5 89.5q-116 0 -192.5 -89.5t-76.5 -229.5zM285 688v483h127 q57 0 100 -40.5t43 -106.5q0 -38 -17.5 -71.5t-43.5 -51.5l92 -160l-80 -57l-103 190h-24v-186h-94zM379 958h24q22 0 37 18t15 48q0 29 -15 46t-37 17h-24v-129z" />
<glyph unicode="&#xaf;" d="M199 1036v158h376v-158h-376z" />
<glyph unicode="&#xb0;" horiz-adv-x="501" d="M49 1112q0 92 59 156.5t142 64.5q86 0 145.5 -64.5t59.5 -156.5q0 -91 -59.5 -156t-145.5 -65q-83 0 -142 65t-59 156zM162 1112q0 -49 25 -81t63 -32q40 0 66 32t26 81t-26 81t-66 32q-38 0 -63 -32t-25 -81z" />
<glyph unicode="&#xb1;" horiz-adv-x="1642" d="M20 705v223h119v41q0 200 97.5 314t273.5 114q97 0 158 -33l-19 -229q-41 32 -112 32q-58 0 -96 -48.5t-38 -123.5v-67h289v22q0 220 127 346.5t355 126.5q97 0 187.5 -29.5t149.5 -76.5v-1012q0 -115 99 -143l-105 -195q-106 11 -183 95.5t-77 222.5v893q-38 18 -104 18 q-85 0 -134 -60.5t-49 -160.5v-47h148l-16 -223h-132v-705h-266v705h-289v-705h-264v705h-119z" />
<glyph unicode="&#xb2;" horiz-adv-x="591" d="M31 500v49q120 126 200 265.5t80 221.5q0 63 -29 97t-79 34q-71 0 -133 -45l-15 154q78 49 170 49q126 0 200.5 -72.5t74.5 -208.5q0 -84 -49.5 -194t-124.5 -203h204v-147h-499z" />
<glyph unicode="&#xb3;" horiz-adv-x="518" d="M49 676q52 -41 127 -41q43 0 74 31.5t31 89.5q0 45 -25 75.5t-63 30.5q-20 0 -41 -6l-13 141q37 11 63.5 39t26.5 60q0 33 -16.5 54t-46.5 21q-48 0 -90 -30l-15 151q64 33 138 33q96 0 156.5 -56t60.5 -145q0 -51 -22 -92t-56 -61q51 -17 92 -75t41 -134 q0 -133 -76 -205t-200 -72q-82 0 -132 31z" />
<glyph unicode="&#xb4;" d="M154 1124q104 34 210 98.5t179 149.5l43 -198q-74 -63 -147 -99t-173 -67z" />
<glyph unicode="&#xb5;" horiz-adv-x="1019" d="M74 0v928h872v-928h-872zM131 59h350q-76 31 -110 113l-240 569v-682zM186 788l447 -382q-77 -31 -122.5 -86t-45.5 -107q0 -102 96 -154h326v729h-701z" />
<glyph unicode="&#xb6;" horiz-adv-x="878" d="M51 918q0 177 111.5 286t263.5 109h412v-228h-127v-1108q0 -169 -83.5 -280.5t-219.5 -145.5l-115 189q77 22 113 83.5t36 174.5v528h-18q-72 0 -138.5 27.5t-119 76.5t-84 124t-31.5 164z" />
<glyph unicode="&#xb7;" horiz-adv-x="403" d="M51 555q0 39 57 100.5t95 61.5q37 0 94 -62t57 -100q0 -40 -57 -102t-94 -62q-38 0 -95 62t-57 102z" />
<glyph unicode="&#xb8;" d="M209 -412l14 119q42 -35 99 -35q31 0 50 21t19 57q0 37 -20.5 58.5t-53.5 21.5q-30 0 -53 -6l23 176h88l-4 -53q63 -5 110 -58.5t47 -136.5q0 -94 -58 -148.5t-136 -54.5q-74 0 -125 39z" />
<glyph unicode="&#xb9;" horiz-adv-x="425" d="M37 1141l16 157l273 25v-823h-179v651z" />
<glyph unicode="&#xba;" horiz-adv-x="784" d="M55 944q0 170 96 278.5t240 108.5q146 0 242 -108.5t96 -278.5q0 -172 -96 -280.5t-242 -108.5q-144 0 -240 109t-96 280zM276 299q0 32 44.5 81.5t72.5 49.5q31 0 76 -49.5t45 -81.5q0 -30 -45.5 -79.5t-75.5 -49.5q-28 0 -72.5 49.5t-44.5 79.5zM281 944 q0 -83 32.5 -137.5t77.5 -54.5q48 0 81.5 54.5t33.5 137.5q0 82 -33.5 136.5t-81.5 54.5q-45 0 -77.5 -54.5t-32.5 -136.5z" />
<glyph unicode="&#xbb;" horiz-adv-x="862" d="M39 336q55 135 151 231q-95 95 -151 232l127 133q125 -229 309 -365q-182 -132 -309 -364zM436 336q60 139 152 231q-92 92 -152 232l127 133q125 -228 307 -365q-181 -133 -307 -364z" />
<glyph unicode="&#xbc;" horiz-adv-x="1269" d="M37 1141l16 157l273 25v-823h-179v651zM137 49l817 1282l111 -74l-817 -1282zM662 352l296 461h177v-459h75v-139h-75v-215h-170v215h-281zM825 354h140v162q0 46 8 82l-6 2q-19 -48 -41 -86z" />
<glyph unicode="&#xbd;" horiz-adv-x="1363" d="M37 1141l16 157l273 25v-823h-179v651zM137 49l817 1282l111 -74l-817 -1282zM815 0v49q120 126 200.5 266t80.5 222q0 64 -29 98.5t-80 34.5q-70 0 -133 -47l-14 155q82 49 172 49q126 0 199 -72.5t73 -209.5q0 -84 -49.5 -193.5t-124.5 -201.5h207v-150h-502z" />
<glyph unicode="&#xbe;" horiz-adv-x="1318" d="M49 676q52 -41 127 -41q43 0 74 31.5t31 89.5q0 45 -25 75.5t-63 30.5q-20 0 -41 -6l-13 141q37 11 63.5 39t26.5 60q0 33 -16.5 54t-46.5 21q-48 0 -90 -30l-15 151q64 33 138 33q96 0 156.5 -56t60.5 -145q0 -51 -22 -92t-56 -61q51 -17 92 -75t41 -134 q0 -133 -76 -205t-200 -72q-82 0 -132 31zM197 49l815 1282l110 -74l-815 -1282zM719 352l299 461h176v-459h76v-139h-76v-215h-172v215h-279zM885 354h137v162q0 28 8 82l-4 2q-11 -27 -41 -86z" />
<glyph unicode="&#xbf;" horiz-adv-x="710" d="M61 276q0 96 36.5 176t121.5 191q74 101 74 207q0 42 -6 80l223 -49q12 -46 12 -101q0 -79 -25 -148.5t-83 -148.5q-42 -58 -61 -101.5t-19 -96.5q0 -58 34 -95.5t91 -37.5q107 0 192 88l19 -242q-93 -82 -240 -82q-166 0 -267.5 98.5t-101.5 261.5zM238 1167 q0 40 57 103t96 63q38 0 95 -63t57 -103q0 -39 -57 -100t-95 -61q-39 0 -96 61t-57 100z" />
<glyph unicode="&#xc0;" horiz-adv-x="1052" d="M14 0l408 1313h211l405 -1313h-278l-80 287h-322l-79 -287h-265zM254 1584l43 198q73 -85 179 -149.5t210 -98.5l-112 -116q-100 31 -173 67t-147 99zM416 502h207l-72 256q-19 59 -31 129h-4q-7 -55 -31 -129z" />
<glyph unicode="&#xc1;" horiz-adv-x="1052" d="M14 0l408 1313h211l405 -1313h-278l-80 287h-322l-79 -287h-265zM365 1534q104 34 210 98.5t179 149.5l43 -199q-74 -63 -147 -99t-173 -67zM416 502h207l-72 256q-19 59 -31 129h-4q-7 -55 -31 -129z" />
<glyph unicode="&#xc2;" horiz-adv-x="1052" d="M14 0l408 1313h211l405 -1313h-278l-80 287h-322l-79 -287h-265zM262 1528q72 38 142 107.5t120 156.5q52 -88 121 -157.5t141 -106.5l-106 -110q-99 54 -156 125q-55 -71 -154 -125zM416 502h207l-72 256q-19 59 -31 129h-4q-7 -55 -31 -129z" />
<glyph unicode="&#xc3;" horiz-adv-x="1052" d="M14 0l408 1313h211l405 -1313h-278l-80 287h-322l-79 -287h-265zM250 1446l43 186q133 98 274 111l21 -135q107 17 229 106l-41 -186q-130 -98 -276 -111l-21 133q-107 -15 -229 -104zM416 502h207l-72 256q-19 59 -31 129h-4q-7 -55 -31 -129z" />
<glyph unicode="&#xc4;" horiz-adv-x="1052" d="M14 0l408 1313h211l405 -1313h-278l-80 287h-322l-79 -287h-265zM245 1547q0 31 46 81t75 50t75 -50t46 -81t-46 -80t-75 -49t-75 49t-46 80zM416 502h207l-72 256q-19 59 -31 129h-4q-7 -55 -31 -129zM573 1547q0 31 45 81t74 50q30 0 76.5 -50t46.5 -81t-46.5 -80 t-76.5 -49q-29 0 -74 49t-45 80z" />
<glyph unicode="&#xc5;" horiz-adv-x="1052" d="M14 0l408 1313h211l405 -1313h-278l-80 287h-322l-79 -287h-265zM305 1624q0 99 64 168.5t157 69.5q91 0 155 -70t64 -168t-64 -168t-155 -70q-93 0 -157 69.5t-64 168.5zM416 502h207l-72 256q-19 59 -31 129h-4q-7 -55 -31 -129zM428 1624q0 -53 27.5 -87t70.5 -34 q42 0 70.5 34.5t28.5 86.5q0 53 -28.5 87t-70.5 34q-43 0 -70.5 -33.5t-27.5 -87.5z" />
<glyph unicode="&#xc6;" horiz-adv-x="1431" d="M6 0l629 1307h723v-236h-359v-297h291v-237h-291v-301h402v-236h-668v287h-315l-129 -287h-283zM516 504h217v364l6 183h-4q-28 -104 -65 -185z" />
<glyph unicode="&#xc7;" horiz-adv-x="970" d="M61 653q0 128 31 238.5t85.5 190t127 136.5t156 85t172.5 28q180 0 289 -71l-19 -252q-93 73 -231 73q-141 0 -231.5 -119.5t-90.5 -308.5t91 -307.5t237 -118.5q158 0 242 74l-21 -264q-85 -59 -260 -62l-4 -28q65 -5 112.5 -58.5t47.5 -136.5q0 -94 -59 -148.5 t-138 -54.5q-72 0 -123 39l14 119q40 -35 97 -35q32 0 50.5 20.5t18.5 57.5q0 38 -19.5 59t-53.5 21q-32 0 -52 -6l19 158q-100 16 -187 68t-155 134.5t-107 203.5t-39 265z" />
<glyph unicode="&#xc8;" horiz-adv-x="806" d="M94 0v1307h639v-236h-358v-297h291v-237h-291v-301h401v-236h-682zM145 1583l43 199q73 -85 179 -149.5t211 -98.5l-113 -117q-100 31 -173 67t-147 99z" />
<glyph unicode="&#xc9;" horiz-adv-x="806" d="M94 0v1307h639v-236h-358v-297h291v-237h-291v-301h401v-236h-682zM265 1534q104 34 210 98.5t179 149.5l43 -198q-74 -63 -147 -99t-173 -67z" />
<glyph unicode="&#xca;" horiz-adv-x="806" d="M94 0v1307h639v-236h-358v-297h291v-237h-291v-301h401v-236h-682zM166 1528q72 38 142 107.5t120 156.5q52 -88 121 -157.5t141 -106.5l-106 -111q-99 54 -156 125q-55 -71 -154 -125z" />
<glyph unicode="&#xcb;" horiz-adv-x="806" d="M94 0v1307h639v-236h-358v-297h291v-237h-291v-301h401v-236h-682zM141 1547q0 31 46 81t75 50t75 -50t46 -81t-46 -80t-75 -49t-75 49t-46 80zM469 1547q0 31 45 81t74 50q30 0 76.5 -50t46.5 -81t-46.5 -80t-76.5 -49q-29 0 -74 49t-45 80z" />
<glyph unicode="&#xcc;" horiz-adv-x="499" d="M0 1583l43 199q73 -85 179 -149.5t210 -98.5l-113 -117q-100 30 -172 66.5t-147 99.5zM109 0v1307h282v-1307h-282z" />
<glyph unicode="&#xcd;" horiz-adv-x="499" d="M68 1534q104 34 210 98.5t179 149.5l43 -198q-74 -63 -147 -99t-173 -67zM109 0v1307h282v-1307h-282z" />
<glyph unicode="&#xce;" horiz-adv-x="499" d="M-14 1528q72 38 142 107.5t120 156.5q52 -88 121 -157.5t141 -106.5l-107 -111q-97 53 -155 125q-55 -71 -154 -125zM109 0v1307h282v-1307h-282z" />
<glyph unicode="&#xcf;" horiz-adv-x="499" d="M-35 1546q0 31 46 81t75 50t75 -50t46 -81t-46 -80t-75 -49t-75 49t-46 80zM109 0v1307h282v-1307h-282zM293 1546q0 31 45 81t74 50q30 0 76.5 -50t46.5 -81t-46.5 -80t-76.5 -49q-29 0 -74 49t-45 80z" />
<glyph unicode="&#xd0;" horiz-adv-x="1130" d="M4 555v201h121v551h373q117 0 220 -43t181.5 -123.5t124 -206.5t45.5 -281t-45.5 -281t-124 -206t-181.5 -123t-220 -43h-373v555h-121zM399 244h70q136 0 225.5 104.5t89.5 304.5q0 201 -89.5 305.5t-225.5 104.5h-70v-307h156l-25 -201h-131v-311z" />
<glyph unicode="&#xd1;" horiz-adv-x="1185" d="M94 0v1307h221l340 -480q115 -162 164 -243h4q-6 114 -6 239v484h277v-1317h-158l-385 526q-115 161 -184 270l-5 -2q7 -154 7 -262v-522h-275zM307 1446l43 187q132 96 275 110l20 -135q106 17 230 107l-41 -187q-67 -50 -132 -76.5t-145 -33.5l-20 133 q-107 -14 -230 -105z" />
<glyph unicode="&#xd2;" horiz-adv-x="1257" d="M61 655q0 150 45 278t122 214.5t181 135t220 48.5q115 0 218.5 -48.5t181 -135t122.5 -214.5t45 -278q0 -152 -45 -280.5t-122.5 -215.5t-180.5 -135.5t-219 -48.5t-220 48.5t-181 135.5t-122 215.5t-45 280.5zM346 1583l43 199q73 -85 179 -149.5t210 -98.5l-112 -117 q-100 31 -173 67t-147 99zM350 655q0 -185 82.5 -304.5t196.5 -119.5q113 0 195.5 119.5t82.5 304.5q0 182 -83 302t-195 120q-113 0 -196 -119.5t-83 -302.5z" />
<glyph unicode="&#xd3;" horiz-adv-x="1257" d="M61 655q0 150 45 278t122 214.5t181 135t220 48.5q115 0 218.5 -48.5t181 -135t122.5 -214.5t45 -278q0 -152 -45 -280.5t-122.5 -215.5t-180.5 -135.5t-219 -48.5t-220 48.5t-181 135.5t-122 215.5t-45 280.5zM350 655q0 -185 82.5 -304.5t196.5 -119.5 q113 0 195.5 119.5t82.5 304.5q0 182 -83 302t-195 120q-113 0 -196 -119.5t-83 -302.5zM467 1534q104 34 210 98.5t179 149.5l43 -199q-74 -63 -146.5 -99t-172.5 -67z" />
<glyph unicode="&#xd4;" horiz-adv-x="1257" d="M61 655q0 150 45 278t122 214.5t181 135t220 48.5q115 0 218.5 -48.5t181 -135t122.5 -214.5t45 -278q0 -152 -45 -280.5t-122.5 -215.5t-180.5 -135.5t-219 -48.5t-220 48.5t-181 135.5t-122 215.5t-45 280.5zM350 655q0 -185 82.5 -304.5t196.5 -119.5 q113 0 195.5 119.5t82.5 304.5q0 182 -83 302t-195 120q-113 0 -196 -119.5t-83 -302.5zM367 1528q72 38 142 107.5t120 156.5q52 -88 121 -157.5t141 -106.5l-107 -111q-97 53 -155 125q-55 -71 -154 -125z" />
<glyph unicode="&#xd5;" horiz-adv-x="1257" d="M61 655q0 150 45 278t122 214.5t181 135t220 48.5q115 0 218.5 -48.5t181 -135t122.5 -214.5t45 -278q0 -152 -45 -280.5t-122.5 -215.5t-180.5 -135.5t-219 -48.5t-220 48.5t-181 135.5t-122 215.5t-45 280.5zM338 1446l43 187q132 96 275 110l20 -135q106 17 230 107 l-41 -187q-67 -50 -132 -76.5t-145 -33.5l-20 133q-107 -14 -230 -105zM350 655q0 -185 82.5 -304.5t196.5 -119.5q113 0 195.5 119.5t82.5 304.5q0 182 -83 302t-195 120q-113 0 -196 -119.5t-83 -302.5z" />
<glyph unicode="&#xd6;" horiz-adv-x="1257" d="M61 655q0 150 45 278t122 214.5t181 135t220 48.5q115 0 218.5 -48.5t181 -135t122.5 -214.5t45 -278q0 -152 -45 -280.5t-122.5 -215.5t-180.5 -135.5t-219 -48.5t-220 48.5t-181 135.5t-122 215.5t-45 280.5zM344 1547q0 31 46 81t75 50t75 -50t46 -81t-46 -80t-75 -49 t-75 49t-46 80zM350 655q0 -185 82.5 -304.5t196.5 -119.5q113 0 195.5 119.5t82.5 304.5q0 182 -83 302t-195 120q-113 0 -196 -119.5t-83 -302.5zM672 1547q0 31 45 81t74 50q30 0 76.5 -50t46.5 -81t-46.5 -80t-76.5 -49q-29 0 -74 49t-45 80z" />
<glyph unicode="&#xd7;" horiz-adv-x="761" d="M68 354l180 207l-180 207l143 141l170 -194l172 192l141 -137l-178 -207l180 -209l-143 -139l-172 193l-170 -193z" />
<glyph unicode="&#xd8;" horiz-adv-x="1257" d="M61 655q0 150 45 278t122 214.5t181 135t220 48.5q163 0 299 -94l78 125l102 -76l-84 -133q81 -91 126.5 -218.5t45.5 -279.5t-45 -280.5t-122.5 -215.5t-180.5 -135.5t-219 -48.5q-158 0 -295 91l-76 -119l-102 78l80 127q-175 196 -175 503zM330 655q0 -149 59 -264 l402 631q-77 68 -162 68q-123 0 -211 -123t-88 -312zM471 283q73 -64 158 -64q122 0 210.5 123t88.5 313q0 148 -58 258z" />
<glyph unicode="&#xd9;" horiz-adv-x="1122" d="M94 393v914h281v-891q0 -87 51.5 -139t136.5 -52t138 51.5t53 137.5v893h274v-914q0 -190 -132.5 -303t-334.5 -113t-334.5 113t-132.5 303zM272 1583l43 199q73 -85 179 -149.5t211 -98.5l-113 -117q-100 31 -173 67t-147 99z" />
<glyph unicode="&#xda;" horiz-adv-x="1122" d="M94 393v914h281v-891q0 -87 51.5 -139t136.5 -52t138 51.5t53 137.5v893h274v-914q0 -190 -132.5 -303t-334.5 -113t-334.5 113t-132.5 303zM424 1534q104 34 210 98.5t179 149.5l43 -198q-74 -63 -147 -99t-173 -67z" />
<glyph unicode="&#xdb;" horiz-adv-x="1122" d="M94 393v914h281v-891q0 -87 51.5 -139t136.5 -52t138 51.5t53 137.5v893h274v-914q0 -190 -132.5 -303t-334.5 -113t-334.5 113t-132.5 303zM299 1528q72 38 142 107.5t120 156.5q52 -88 121 -157.5t141 -106.5l-106 -111q-99 54 -156 125q-55 -72 -153 -125z" />
<glyph unicode="&#xdc;" horiz-adv-x="1122" d="M94 393v914h281v-891q0 -87 51.5 -139t136.5 -52t138 51.5t53 137.5v893h274v-914q0 -190 -132.5 -303t-334.5 -113t-334.5 113t-132.5 303zM283 1546q0 31 45.5 81t74.5 50t75 -50t46 -81t-46 -80t-75 -49t-74.5 49t-45.5 80zM610 1546q0 31 45 81t74 50q30 0 76.5 -50 t46.5 -81t-46.5 -80t-76.5 -49q-29 0 -74 49t-45 80z" />
<glyph unicode="&#xdd;" horiz-adv-x="1046" d="M-2 1307h295l160 -308q54 -101 77 -155h5q64 130 77 155l158 308h274l-382 -729v-578h-277v571zM379 1534q104 34 210 98.5t179 149.5l43 -198q-74 -63 -147 -99t-173 -67z" />
<glyph unicode="&#xde;" horiz-adv-x="890" d="M94 0v1307h273v-152h131q152 0 258 -107.5t106 -279.5q0 -171 -106 -280t-258 -109h-131v-379h-273zM367 608h92q53 0 92 42.5t39 117.5t-39 118.5t-92 43.5h-92v-322z" />
<glyph unicode="&#xdf;" horiz-adv-x="1030" d="M94 0v946q0 221 105 349t295 128q123 0 213.5 -58.5t135 -154t44.5 -213.5q0 -113 -29 -223q-79 0 -131.5 -27.5t-52.5 -68.5q0 -29 19.5 -51.5t72.5 -53.5q111 -66 163 -139t52 -168q0 -126 -81.5 -207.5t-235.5 -81.5q-75 0 -138 18.5t-98 45.5v225q90 -78 213 -78 q38 0 60 20t22 50q0 32 -19.5 57t-66.5 54q-107 66 -160 138.5t-53 162.5q0 102 56 170t136 88q11 34 11 82q0 73 -38 130.5t-95 57.5q-65 0 -103.5 -65t-38.5 -170v-963h-258z" />
<glyph unicode="&#xe0;" horiz-adv-x="845" d="M47 268q0 132 77.5 214t207.5 96l133 14v37q0 106 -125 106q-62 0 -121 -19t-96 -46l-19 215q41 29 112.5 47t145.5 18q170 0 267.5 -94t97.5 -266v-291q0 -110 94 -131l-98 -193q-122 10 -170 101q-77 -99 -217 -99q-125 0 -207 77.5t-82 213.5zM127 1186l37 168 q64 -72 154 -127.5t178 -83.5l-97 -99q-84 26 -145.5 56.5t-126.5 85.5zM283 266q0 -38 22.5 -65t56.5 -27q44 0 76.5 35t32.5 86v111l-88 -9q-47 -4 -73.5 -40t-26.5 -91z" />
<glyph unicode="&#xe1;" horiz-adv-x="845" d="M47 268q0 132 77.5 214t207.5 96l133 14v37q0 106 -125 106q-62 0 -121 -19t-96 -46l-19 215q41 29 112.5 47t145.5 18q170 0 267.5 -94t97.5 -266v-291q0 -110 94 -131l-98 -193q-122 10 -170 101q-77 -99 -217 -99q-125 0 -207 77.5t-82 213.5zM213 1145 q89 29 178.5 83t151.5 126l37 -168q-109 -92 -271 -142zM283 266q0 -38 22.5 -65t56.5 -27q44 0 76.5 35t32.5 86v111l-88 -9q-47 -4 -73.5 -40t-26.5 -91z" />
<glyph unicode="&#xe2;" horiz-adv-x="845" d="M47 268q0 132 77.5 214t207.5 96l133 14v37q0 106 -125 106q-62 0 -121 -19t-96 -46l-19 215q41 29 112.5 47t145.5 18q170 0 267.5 -94t97.5 -266v-291q0 -110 94 -131l-98 -193q-122 10 -170 101q-77 -99 -217 -99q-125 0 -207 77.5t-82 213.5zM160 1139 q62 31 121.5 90.5t101.5 134.5q44 -75 103 -134.5t120 -90.5l-90 -95q-80 44 -133 107q-46 -60 -131 -107zM283 266q0 -38 22.5 -65t56.5 -27q44 0 76.5 35t32.5 86v111l-88 -9q-47 -4 -73.5 -40t-26.5 -91z" />
<glyph unicode="&#xe3;" horiz-adv-x="845" d="M47 268q0 132 77.5 214t207.5 96l133 14v37q0 106 -125 106q-62 0 -121 -19t-96 -46l-19 215q41 29 112.5 47t145.5 18q170 0 267.5 -94t97.5 -266v-291q0 -110 94 -131l-98 -193q-122 10 -170 101q-77 -99 -217 -99q-125 0 -207 77.5t-82 213.5zM160 1069l37 158 q112 83 233 94l19 -115q90 14 194 90l-35 -157q-117 -85 -235 -95l-17 113q-93 -12 -196 -88zM283 266q0 -38 22.5 -65t56.5 -27q44 0 76.5 35t32.5 86v111l-88 -9q-47 -4 -73.5 -40t-26.5 -91z" />
<glyph unicode="&#xe4;" horiz-adv-x="845" d="M47 268q0 132 77.5 214t207.5 96l133 14v37q0 106 -125 106q-62 0 -121 -19t-96 -46l-19 215q41 29 112.5 47t145.5 18q170 0 267.5 -94t97.5 -266v-291q0 -110 94 -131l-98 -193q-122 10 -170 101q-77 -99 -217 -99q-125 0 -207 77.5t-82 213.5zM145 1155q0 27 39.5 69 t65.5 42q25 0 63.5 -42.5t38.5 -68.5t-38.5 -68.5t-63.5 -42.5q-26 0 -65.5 42t-39.5 69zM283 266q0 -38 22.5 -65t56.5 -27q44 0 76.5 35t32.5 86v111l-88 -9q-47 -4 -73.5 -40t-26.5 -91zM424 1155q0 26 38.5 68.5t63.5 42.5q26 0 65.5 -42t39.5 -69t-39.5 -69t-65.5 -42 q-25 0 -63.5 42.5t-38.5 68.5z" />
<glyph unicode="&#xe5;" horiz-adv-x="845" d="M47 268q0 132 77.5 214t207.5 96l133 14v37q0 106 -125 106q-62 0 -121 -19t-96 -46l-19 215q41 29 112.5 47t145.5 18q170 0 267.5 -94t97.5 -266v-291q0 -110 94 -131l-98 -193q-122 10 -170 101q-77 -99 -217 -99q-125 0 -207 77.5t-82 213.5zM193 1221q0 84 54 143 t132 59t132 -59t54 -143t-54 -143.5t-132 -59.5t-132 59.5t-54 143.5zM283 266q0 -38 22.5 -65t56.5 -27q44 0 76.5 35t32.5 86v111l-88 -9q-47 -4 -73.5 -40t-26.5 -91zM297 1221q0 -44 23.5 -73.5t58.5 -29.5t59.5 29.5t24.5 73.5q0 45 -24 73.5t-60 28.5t-59 -28.5 t-23 -73.5z" />
<glyph unicode="&#xe6;" horiz-adv-x="1277" d="M47 264q0 130 76 210.5t207 94.5l135 15v47q0 49 -31 76.5t-94 27.5q-62 0 -121 -19t-96 -46l-19 215q41 29 112.5 47t145.5 18q82 0 151.5 -26t109.5 -76q99 102 254 102q158 0 254 -106.5t96 -255.5q0 -69 -6 -94l-109 -109h-371q12 -81 70 -138t156 -57q118 0 211 68 l-19 -227q-89 -54 -231 -54q-96 0 -178.5 34t-137.5 98q-45 -67 -116.5 -99.5t-151.5 -32.5q-129 0 -213 76.5t-84 210.5zM283 262q0 -38 22.5 -63t56.5 -25q44 0 76.5 35t32.5 86v102l-88 -8q-50 -4 -75 -40t-25 -87zM735 571h248q0 3 1 12.5t1 12.5q0 62 -30 107t-78 45 q-52 0 -92.5 -51t-49.5 -126z" />
<glyph unicode="&#xe7;" d="M51 463q0 111 34.5 204t93 154.5t135.5 95t163 33.5q146 0 238 -57l-19 -236q-78 56 -176 56q-86 0 -141 -68.5t-55 -181.5q0 -112 58.5 -181t147.5 -69q97 0 177 53l-19 -241q-73 -48 -203 -48l-2 -26q54 -3 96 -51t42 -121q0 -81 -51 -127.5t-119 -46.5q-65 0 -109 30 l14 105q36 -33 84 -33q26 0 43 19.5t17 50.5q0 33 -18 52t-46 19q-29 0 -47 -4l19 140q-155 27 -256 155.5t-101 323.5z" />
<glyph unicode="&#xe8;" horiz-adv-x="854" d="M49 469q0 216 116.5 348.5t289.5 132.5q107 0 188.5 -51.5t122.5 -133t41 -177.5q0 -44 -8 -94l-111 -109h-369q12 -81 69.5 -140t152.5 -59q120 0 215 72l-19 -227q-85 -54 -231 -54q-200 0 -328.5 135t-128.5 357zM225 1186l37 168q62 -71 151.5 -125.5t178.5 -83.5 l-94 -101q-84 25 -146.5 56.5t-126.5 85.5zM313 571h248q0 3 1 12.5t1 12.5q0 62 -30 107t-78 45q-52 0 -92.5 -51t-49.5 -126z" />
<glyph unicode="&#xe9;" horiz-adv-x="854" d="M49 469q0 216 116.5 348.5t289.5 132.5q107 0 188.5 -51.5t122.5 -133t41 -177.5q0 -44 -8 -94l-111 -109h-369q12 -81 69.5 -140t152.5 -59q120 0 215 72l-19 -227q-85 -54 -231 -54q-200 0 -328.5 135t-128.5 357zM313 571h248q0 3 1 12.5t1 12.5q0 62 -30 107t-78 45 q-52 0 -92.5 -51t-49.5 -126zM315 1143q89 29 179.5 84t152.5 127l37 -168q-62 -54 -124.5 -85t-147.5 -57z" />
<glyph unicode="&#xea;" horiz-adv-x="854" d="M49 469q0 216 116.5 348.5t289.5 132.5q107 0 188.5 -51.5t122.5 -133t41 -177.5q0 -44 -8 -94l-111 -109h-369q12 -81 69.5 -140t152.5 -59q120 0 215 72l-19 -227q-85 -54 -231 -54q-200 0 -328.5 135t-128.5 357zM229 1139q62 32 122 91.5t102 133.5 q44 -75 103 -134.5t120 -90.5l-90 -95q-84 46 -133 107q-50 -63 -131 -107zM313 571h248q0 3 1 12.5t1 12.5q0 62 -30 107t-78 45q-52 0 -92.5 -51t-49.5 -126z" />
<glyph unicode="&#xeb;" horiz-adv-x="854" d="M49 469q0 216 116.5 348.5t289.5 132.5q107 0 188.5 -51.5t122.5 -133t41 -177.5q0 -44 -8 -94l-111 -109h-369q12 -81 69.5 -140t152.5 -59q120 0 215 72l-19 -227q-85 -54 -231 -54q-200 0 -328.5 135t-128.5 357zM211 1155q0 26 38.5 68.5t63.5 42.5t64 -42.5 t39 -68.5t-39 -68.5t-64 -42.5t-63.5 42.5t-38.5 68.5zM313 571h248q0 3 1 12.5t1 12.5q0 62 -30 107t-78 45q-52 0 -92.5 -51t-49.5 -126zM489 1155q0 26 38 68.5t63 42.5q26 0 65 -42t39 -69t-39 -69t-65 -42q-25 0 -63 42.5t-38 68.5z" />
<glyph unicode="&#xec;" horiz-adv-x="466" d="M-2 1186l37 168q62 -72 152.5 -127t179.5 -84l-97 -99q-85 26 -147 56.5t-125 85.5zM98 0v928h271v-928h-271z" />
<glyph unicode="&#xed;" horiz-adv-x="466" d="M98 0v928h271v-928h-271zM102 1143q88 29 178 84t152 127l37 -168q-63 -55 -125 -85.5t-147 -56.5z" />
<glyph unicode="&#xee;" horiz-adv-x="466" d="M10 1137q61 33 120 92t101 133q43 -74 103 -133t121 -92l-90 -95q-82 45 -134 107q-45 -59 -129 -107zM98 0v928h271v-928h-271z" />
<glyph unicode="&#xef;" horiz-adv-x="466" d="M-10 1155q0 26 38.5 68.5t63.5 42.5q26 0 65.5 -42t39.5 -69t-39.5 -69t-65.5 -42q-25 0 -63.5 42.5t-38.5 68.5zM98 0v928h271v-928h-271zM268 1155q0 27 38.5 69t64.5 42t65 -42t39 -69t-39 -69t-65 -42t-64.5 42t-38.5 69z" />
<glyph unicode="&#xf0;" horiz-adv-x="913" d="M51 416q0 142 58.5 244t154.5 157q89 51 187 72l-56 151l-135 -49l-67 191l133 47l-64 180h281l32 -90l109 39l68 -191l-107 -39l168 -460q41 -125 41 -230q0 -211 -111 -337t-292 -126q-179 0 -289.5 125t-110.5 316zM315 418q0 -90 38 -145.5t96 -55.5q60 0 98.5 59 t38.5 158q0 60 -56 230q-58 -9 -116 -43q-46 -27 -72.5 -80t-26.5 -123z" />
<glyph unicode="&#xf1;" horiz-adv-x="915" d="M78 0v928h235l9 -86q68 106 225 106q133 0 212 -84t79 -225v-639h-269v586q0 54 -28 88.5t-80 34.5t-83.5 -36t-31.5 -93v-580h-268zM215 1069l37 158q112 83 233 94l17 -115q92 14 196 90l-34 -157q-117 -85 -236 -95l-18 113q-92 -12 -195 -88z" />
<glyph unicode="&#xf2;" horiz-adv-x="948" d="M51 463q0 215 119 351t303 136t304 -136t120 -351q0 -214 -120 -350t-304 -136t-303 136t-119 350zM240 1186l36 168q64 -72 154 -127.5t178 -83.5l-96 -99q-84 26 -145.5 56.5t-126.5 85.5zM315 463q0 -111 46.5 -182.5t113.5 -71.5q65 0 111.5 72t46.5 182 q0 111 -46.5 184.5t-111.5 73.5q-67 0 -113.5 -73t-46.5 -185z" />
<glyph unicode="&#xf3;" horiz-adv-x="948" d="M51 463q0 215 119 351t303 136t304 -136t120 -351q0 -214 -120 -350t-304 -136t-303 136t-119 350zM315 463q0 -111 46.5 -182.5t113.5 -71.5q65 0 111.5 72t46.5 182q0 111 -46.5 184.5t-111.5 73.5q-67 0 -113.5 -73t-46.5 -185zM346 1143q88 29 178 84t152 127 l37 -168q-63 -54 -125 -85t-148 -57z" />
<glyph unicode="&#xf4;" horiz-adv-x="948" d="M51 463q0 215 119 351t303 136t304 -136t120 -351q0 -214 -120 -350t-304 -136t-303 136t-119 350zM250 1139q61 31 120 90.5t103 134.5q42 -75 101 -134.5t120 -90.5l-90 -95q-81 44 -131 107q-50 -63 -131 -107zM315 463q0 -111 46.5 -182.5t113.5 -71.5q65 0 111.5 72 t46.5 182q0 111 -46.5 184.5t-111.5 73.5q-67 0 -113.5 -73t-46.5 -185z" />
<glyph unicode="&#xf5;" horiz-adv-x="948" d="M51 463q0 215 119 351t303 136t304 -136t120 -351q0 -214 -120 -350t-304 -136t-303 136t-119 350zM236 1069l36 158q109 83 234 94l16 -115q90 14 195 90l-35 -157q-114 -85 -233 -95l-19 113q-90 -11 -194 -88zM315 463q0 -111 46.5 -182.5t113.5 -71.5q65 0 111.5 72 t46.5 182q0 111 -46.5 184.5t-111.5 73.5q-67 0 -113.5 -73t-46.5 -185z" />
<glyph unicode="&#xf6;" horiz-adv-x="948" d="M51 463q0 215 119 351t303 136t304 -136t120 -351q0 -214 -120 -350t-304 -136t-303 136t-119 350zM231 1155q0 26 39 68.5t64 42.5t63.5 -42.5t38.5 -68.5t-38.5 -68.5t-63.5 -42.5t-64 42.5t-39 68.5zM315 463q0 -111 46.5 -182.5t113.5 -71.5q65 0 111.5 72t46.5 182 q0 111 -46.5 184.5t-111.5 73.5q-67 0 -113.5 -73t-46.5 -185zM510 1155q0 26 37.5 68.5t62.5 42.5q26 0 65.5 -42t39.5 -69t-39.5 -69t-65.5 -42q-25 0 -62.5 42.5t-37.5 68.5z" />
<glyph unicode="&#xf7;" horiz-adv-x="774" d="M59 463v207h658v-207h-658zM264 250q0 32 46 82.5t77 50.5q29 0 76 -50.5t47 -82.5t-47 -82.5t-76 -50.5q-31 0 -77 50.5t-46 82.5zM264 881q0 34 46 83.5t77 49.5q30 0 76.5 -50t46.5 -83q0 -32 -47 -82.5t-76 -50.5q-31 0 -77 50.5t-46 82.5z" />
<glyph unicode="&#xf8;" horiz-adv-x="944" d="M51 463q0 215 119 351t303 136q121 0 213 -59l64 96l90 -67l-66 -101q123 -136 123 -356q0 -214 -120 -350t-304 -136q-118 0 -215 62l-65 -98l-89 67l68 103q-121 137 -121 352zM289 463q0 -75 22 -139l254 385q-39 36 -90 36q-77 0 -131.5 -80t-54.5 -202zM379 221 q45 -39 96 -39q74 0 128 80.5t54 200.5q0 81 -24 143z" />
<glyph unicode="&#xf9;" horiz-adv-x="915" d="M78 289v639h268v-586q0 -53 28.5 -88t80.5 -35t83 35.5t31 93.5v580h269v-928h-236l-6 86q-68 -106 -227 -106q-132 0 -211.5 84t-79.5 225zM215 1186l35 168q64 -72 154 -127.5t178 -83.5l-97 -99q-84 26 -145.5 56.5t-124.5 85.5z" />
<glyph unicode="&#xfa;" horiz-adv-x="915" d="M78 289v639h268v-586q0 -53 28.5 -88t80.5 -35t83 35.5t31 93.5v580h269v-928h-236l-6 86q-68 -106 -227 -106q-132 0 -211.5 84t-79.5 225zM336 1145q89 29 178.5 83t151.5 126l36 -168q-63 -54 -125.5 -85.5t-144.5 -56.5z" />
<glyph unicode="&#xfb;" horiz-adv-x="915" d="M78 289v639h268v-586q0 -53 28.5 -88t80.5 -35t83 35.5t31 93.5v580h269v-928h-236l-6 86q-68 -106 -227 -106q-132 0 -211.5 84t-79.5 225zM236 1139q62 32 121.5 91t101.5 134q44 -76 102 -135t119 -90l-90 -95q-81 44 -131 107q-50 -63 -131 -107z" />
<glyph unicode="&#xfc;" horiz-adv-x="915" d="M78 289v639h268v-586q0 -53 28.5 -88t80.5 -35t83 35.5t31 93.5v580h269v-928h-236l-6 86q-68 -106 -227 -106q-132 0 -211.5 84t-79.5 225zM219 1155q0 26 39 68.5t64 42.5t63.5 -42.5t38.5 -68.5t-38.5 -68.5t-63.5 -42.5t-64 42.5t-39 68.5zM498 1155q0 26 37.5 68.5 t62.5 42.5q26 0 65 -42t39 -69t-39 -69t-65 -42q-25 0 -62.5 42.5t-37.5 68.5z" />
<glyph unicode="&#xfd;" horiz-adv-x="866" d="M23 928h260l108 -350q21 -71 45 -177h4q18 91 43 174l111 353h250l-269 -848q-73 -234 -171.5 -360.5t-241.5 -172.5l-109 183q91 36 148.5 103t107.5 212zM317 1143q88 28 178 83.5t154 127.5l37 -168q-64 -54 -126 -85t-146 -57z" />
<glyph unicode="&#xfe;" horiz-adv-x="950" d="M86 -432v1841h262v-502q65 41 166 41q69 0 137 -33t123.5 -92t90 -151t34.5 -201q0 -219 -116.5 -356.5t-299.5 -137.5q-82 0 -135 31v-440h-262zM348 254q46 -43 121 -43q71 0 118.5 71.5t47.5 180.5q0 110 -47 181t-119 71q-73 0 -121 -51v-410z" />
<glyph unicode="&#xff;" horiz-adv-x="866" d="M23 928h260l108 -350q21 -71 45 -177h4q18 91 43 174l111 353h250l-269 -848q-73 -234 -171.5 -360.5t-241.5 -172.5l-109 183q91 36 148.5 103t107.5 212zM199 1147q0 26 38.5 69.5t63.5 43.5t63.5 -43.5t38.5 -69.5t-38.5 -67.5t-63.5 -41.5t-63.5 41.5t-38.5 67.5z M477 1147q0 27 38.5 70t62.5 43q26 0 65 -43t39 -70t-39 -68t-65 -41q-25 0 -63 41.5t-38 67.5z" />
<glyph unicode="&#x152;" horiz-adv-x="1566" d="M61 655q0 151 45 279t122 214t181 134.5t220 48.5q152 0 266 -82v58h598v-236h-358v-297h292v-237h-292v-301h401v-236h-641v59q-110 -82 -266 -82q-116 0 -220 48.5t-181 135t-122 214.5t-45 280zM350 655q0 -182 84.5 -300.5t204.5 -118.5q64 0 124.5 26.5t100.5 71.5 v639q-40 46 -100 73t-125 27q-119 0 -204 -118.5t-85 -299.5z" />
<glyph unicode="&#x153;" horiz-adv-x="1429" d="M49 465q0 215 119.5 350t304.5 135q84 0 160 -33t125 -92q45 59 118.5 92t153.5 33q158 0 254 -106.5t96 -255.5q0 -61 -8 -94l-108 -109h-369q12 -81 69.5 -138t153.5 -57q123 0 213 68l-20 -227q-89 -56 -232 -56q-94 0 -177.5 35.5t-139.5 98.5q-50 -62 -126 -97 t-163 -35q-185 0 -304.5 136t-119.5 352zM315 463q0 -111 46.5 -182.5t113.5 -71.5q65 0 111.5 72t46.5 182q0 111 -46.5 184.5t-111.5 73.5q-67 0 -113.5 -73t-46.5 -185zM889 571h248q0 3 1 12.5t1 12.5q0 62 -31 107t-80 45q-52 0 -91 -50.5t-48 -126.5z" />
<glyph unicode="&#x178;" horiz-adv-x="1046" d="M-2 1307h295l160 -308q54 -101 77 -155h5q64 130 77 155l158 308h274l-382 -729v-578h-277v571zM237 1543q0 31 46 81t75 50t75 -50t46 -81t-46 -80t-75 -49t-75 49t-46 80zM565 1543q0 31 45 81t74 50q30 0 76.5 -50t46.5 -81t-46.5 -80t-76.5 -49q-29 0 -74 49t-45 80z " />
<glyph unicode="&#x2c6;" d="M119 1118q72 38 142 107.5t120 156.5q52 -88 121 -157.5t141 -106.5l-106 -110q-99 54 -156 125q-55 -71 -154 -125z" />
<glyph unicode="&#x2dc;" d="M98 1036l43 187q132 96 275 110l20 -135q106 17 230 107l-41 -187q-67 -50 -132 -76.5t-145 -33.5l-20 133q-107 -14 -230 -105z" />
<glyph unicode="&#x2000;" horiz-adv-x="931" />
<glyph unicode="&#x2001;" horiz-adv-x="1862" />
<glyph unicode="&#x2002;" horiz-adv-x="931" />
<glyph unicode="&#x2003;" horiz-adv-x="1862" />
<glyph unicode="&#x2004;" horiz-adv-x="620" />
<glyph unicode="&#x2005;" horiz-adv-x="465" />
<glyph unicode="&#x2006;" horiz-adv-x="310" />
<glyph unicode="&#x2007;" horiz-adv-x="310" />
<glyph unicode="&#x2008;" horiz-adv-x="232" />
<glyph unicode="&#x2009;" horiz-adv-x="372" />
<glyph unicode="&#x200a;" horiz-adv-x="103" />
<glyph unicode="&#x2010;" horiz-adv-x="565" d="M59 463v207h447v-207h-447z" />
<glyph unicode="&#x2011;" horiz-adv-x="565" d="M59 463v207h447v-207h-447z" />
<glyph unicode="&#x2012;" horiz-adv-x="565" d="M59 463v207h447v-207h-447z" />
<glyph unicode="&#x2013;" horiz-adv-x="993" d="M59 463v207h877v-207h-877z" />
<glyph unicode="&#x2014;" horiz-adv-x="1425" d="M59 463v207h1309v-207h-1309z" />
<glyph unicode="&#x2018;" horiz-adv-x="403" d="M51 989q0 82 71.5 211.5t160.5 216.5l88 -14q-52 -64 -89 -138.5t-46 -136.5q32 -8 74 -57t42 -82q0 -42 -57 -102t-94 -60q-34 0 -92 60t-58 102z" />
<glyph unicode="&#x2019;" horiz-adv-x="403" d="M33 850q50 61 87 136.5t48 137.5q-32 8 -74.5 56.5t-42.5 81.5q0 43 57 102t95 59q34 0 92.5 -58.5t58.5 -102.5q0 -82 -71.5 -210.5t-161.5 -215.5z" />
<glyph unicode="&#x201a;" horiz-adv-x="403" d="M33 -272q51 61 87.5 137t47.5 139q-32 6 -74.5 55t-42.5 82q0 41 57.5 100.5t94.5 59.5q34 0 92.5 -59t58.5 -101q0 -83 -71.5 -212t-161.5 -216z" />
<glyph unicode="&#x201c;" horiz-adv-x="778" d="M51 989q0 82 71.5 211.5t160.5 216.5l90 -14q-52 -63 -89 -137.5t-48 -137.5q32 -8 75 -57t43 -82q0 -42 -57.5 -102t-93.5 -60q-35 0 -93.5 59.5t-58.5 102.5zM426 989q0 83 71.5 212t161.5 216l89 -14q-52 -63 -89.5 -137t-48.5 -136q33 -9 76 -58.5t43 -82.5 q0 -42 -57.5 -102t-93.5 -60q-34 0 -93 60t-59 102z" />
<glyph unicode="&#x201d;" horiz-adv-x="780" d="M33 850q50 61 87 136.5t48 137.5q-32 8 -74.5 56.5t-42.5 81.5q0 43 57 102t95 59q33 0 92 -59t59 -102q0 -82 -72 -211t-163 -215zM408 850q51 64 89 138.5t48 135.5q-33 8 -76 57t-43 81q0 43 57 102t95 59q34 0 91.5 -58.5t57.5 -102.5q0 -81 -71 -210.5t-160 -215.5z " />
<glyph unicode="&#x201e;" horiz-adv-x="780" d="M29 -272q51 61 87.5 137t47.5 139q-32 6 -74.5 54.5t-42.5 82.5q0 41 57.5 100.5t94.5 59.5q33 0 92 -59t59 -101q0 -83 -72 -212.5t-163 -215.5zM403 -270q52 62 90 137t48 137q-33 6 -76 54.5t-43 82.5q0 41 57 100.5t94 59.5q34 0 92 -59t58 -101q0 -83 -70.5 -212.5 t-160.5 -215.5z" />
<glyph unicode="&#x2022;" horiz-adv-x="704" d="M61 563q0 145 83.5 237.5t207.5 92.5q125 0 209 -93t84 -237q0 -146 -84 -239t-209 -93t-208 93t-83 239z" />
<glyph unicode="&#x2026;" horiz-adv-x="1153" d="M51 139q0 39 57 100.5t95 61.5q37 0 94 -62t57 -100q0 -40 -57 -101t-94 -61q-38 0 -95 61t-57 101zM426 139q0 39 57 100.5t95 61.5q36 0 92.5 -61.5t56.5 -100.5q0 -40 -56 -101t-93 -61q-38 0 -95 61t-57 101zM801 139q0 39 56.5 100.5t94.5 61.5t95 -61.5t57 -100.5 q0 -40 -57 -101t-95 -61t-94.5 61t-56.5 101z" />
<glyph unicode="&#x202f;" horiz-adv-x="372" />
<glyph unicode="&#x2039;" horiz-adv-x="464" d="M-10 567q184 136 309 365l127 -133q-25 -62 -67 -124.5t-85 -107.5q100 -104 152 -231l-127 -133q-127 232 -309 364z" />
<glyph unicode="&#x203a;" horiz-adv-x="464" d="M39 336q55 135 151 231q-95 95 -151 232l127 133q119 -224 307 -365q-186 -137 -307 -364z" />
<glyph unicode="&#x205f;" horiz-adv-x="465" />
<glyph unicode="&#x2122;" horiz-adv-x="790" d="M37 1223v84h264v-84h-86v-308h-94v308h-84zM334 915l26 392h84l86 -230l88 230h84l25 -392h-92l-10 195l-70 -195h-51l-68 191l-10 -191h-92z" />
<glyph unicode="&#x25fc;" horiz-adv-x="931" d="M0 0v932h932v-932h-932z" />
</font>
</defs>
</svg>
