<?xml version="1.0" standalone="no"?>
<!DOCTYPE svg PUBLIC "-//W3C//DTD SVG 1.1//EN" "http://www.w3.org/Graphics/SVG/1.1/DTD/svg11.dtd" >
<svg xmlns="http://www.w3.org/2000/svg" xmlns:xlink="http://www.w3.org/1999/xlink" version="1.1">
<metadata>
Created by FontForge 20170731 at Wed Jan  3 22:19:05 2007
 By Aleksey,,,
Copr. 1993, Greg Thompson. Agenda is a Trademark of Greg Thompson. Produced by The Font Bureau, Inc.
</metadata>
<defs>
<font id="Agenda-LightUltraCondensed" horiz-adv-x="188" >
  <font-face 
    font-family="Agenda"
    font-weight="400"
    font-stretch="normal"
    units-per-em="1000"
    panose-1="2 0 6 8 4 0 0 2 0 4"
    ascent="800"
    descent="-200"
    x-height="453"
    cap-height="638"
    bbox="-43 -182 433 828"
    underline-thickness="50"
    underline-position="-150"
    unicode-range="U+0020-FB02"
  />
<missing-glyph horiz-adv-x="500" 
 />
    <glyph glyph-name="fi" unicode="fi" horiz-adv-x="258" 
d="M174 0v410h-82v-410h-48v410h-34v43h34v15q0 93 26 134t77 41q14 0 25 -4.5t16 -10.5l-2 -43q-4 6 -12.5 10.5t-18.5 4.5q-33 0 -48 -30.5t-15 -99.5v-17h131v-453h-49z" />
    <glyph glyph-name="fl" unicode="fl" horiz-adv-x="266" 
d="M230 -7q-25 11 -40.5 37t-15.5 71v494q-7 5 -21 5q-31 0 -46 -34.5t-15 -95.5v-17h43l-5 -43h-38v-410h-48v410h-34v43h34v15q0 79 26 127t83 48q26 0 44 -6.5t26 -14.5v-519q0 -31 7 -48t23 -27z" />
    <glyph glyph-name=".notdef" horiz-adv-x="500" 
 />
    <glyph glyph-name=".null" horiz-adv-x="0" 
 />
    <glyph glyph-name="nonmarkingreturn" horiz-adv-x="113" 
 />
    <glyph glyph-name="space" unicode=" " horiz-adv-x="113" 
 />
    <glyph glyph-name="exclam" unicode="!" horiz-adv-x="122" 
d="M93 50q0 -7 -3 -16.5t-8 -18t-10.5 -14.5t-10.5 -6t-10.5 6t-10.5 14.5t-8 18t-3 16.5t3 16.5t8 18.5t10.5 15t10.5 6t10.5 -6t10.5 -15t8 -18.5t3 -16.5zM83 143l-41 13l-5 482h52z" />
    <glyph glyph-name="quotedbl" unicode="&#x22;" horiz-adv-x="178" 
d="M57 443h-29l-10 195h50zM149 443h-29l-10 195h49z" />
    <glyph glyph-name="numbersign" unicode="#" horiz-adv-x="225" 
d="M94 387l-12 -136h47l12 136h-47zM173 387l-11 -136h35v-32h-39l-19 -219h-32l19 219h-47l-19 -219h-33l19 219h-34v32h38l11 136h-35v32h39l19 219h33l-19 -219h47l19 219h32l-19 -219h35v-32h-39z" />
    <glyph glyph-name="dollar" unicode="$" horiz-adv-x="185" 
d="M172 133q0 -60 -18.5 -93t-47.5 -41v-85h-31v81q-22 1 -35.5 10t-20.5 20l3 51q5 -12 17.5 -22.5t29.5 -10.5q23 0 38 19.5t15 67.5q0 20 -2.5 40t-8.5 42t-15 48t-22 57q-16 38 -26.5 67t-17 52t-9 43t-2.5 40q0 50 15.5 80t40.5 40v75h31v-71q20 -2 30.5 -8.5
t15.5 -13.5l-4 -50q-4 9 -13.5 17t-22.5 8q-20 0 -32 -18.5t-12 -55.5q0 -29 10.5 -70t32.5 -91q18 -40 29.5 -71t18.5 -58t10 -50.5t3 -48.5z" />
    <glyph glyph-name="percent" unicode="%" horiz-adv-x="312" 
d="M256 126q0 45 -5 72.5t-15 27.5q-9 0 -15 -27.5t-6 -72.5t6 -73t15 -28q10 0 15 28t5 73zM97 512q0 45 -5.5 73t-14.5 28t-15 -28t-6 -73t6 -72.5t15 -27.5t14.5 27.5t5.5 72.5zM292 126q0 -58 -13.5 -94.5t-42.5 -36.5q-30 0 -43 36.5t-13 94.5q0 57 13 93.5t43 36.5
q29 0 42.5 -36.5t13.5 -93.5zM88 -6l-31 8l168 642l30 -8zM133 512q0 -58 -13.5 -94t-42.5 -36q-30 0 -43.5 36t-13.5 94t13.5 94.5t43.5 36.5q29 0 42.5 -36.5t13.5 -94.5z" />
    <glyph glyph-name="ampersand" unicode="&#x26;" horiz-adv-x="256" 
d="M95 277q-14 -32 -21.5 -65t-7.5 -73q0 -45 12.5 -72t28.5 -27q12 0 26 18.5t28 50.5zM135 512q0 45 -9 67.5t-23 22.5q-13 0 -21 -22t-8 -67q0 -24 7 -57t19 -68q19 35 27 64.5t8 59.5zM203 0l-21 54q-16 -28 -35 -43.5t-42 -15.5q-21 0 -37 11.5t-26.5 31.5t-16 47
t-5.5 58q0 57 12.5 100t38.5 92q-22 59 -32 99.5t-10 79.5q0 66 22.5 97.5t51.5 31.5q30 0 54 -31.5t24 -99.5q0 -25 -3.5 -46t-11 -41.5t-18.5 -42.5t-25 -49l60 -154q7 27 12 57t7 62l34 -42q-4 -39 -10.5 -75t-17.5 -67l45 -114h-50z" />
    <glyph glyph-name="quotesingle" unicode="'" horiz-adv-x="86" 
d="M57 443h-29l-10 195h50z" />
    <glyph glyph-name="parenleft" unicode="(" horiz-adv-x="159" 
d="M140 643q-29 -88 -47 -194.5t-18 -219.5q0 -61 4.5 -115t13 -103.5t20 -96.5t26.5 -95l-51 15q-14 43 -25.5 86.5t-20 92t-13 103t-4.5 118.5q0 127 18 228.5t48 190.5z" />
    <glyph glyph-name="parenright" unicode=")" horiz-adv-x="159" 
d="M134 237q0 -127 -18 -228.5t-48 -190.5l-49 10q29 88 47.5 194.5t18.5 219.5q0 61 -4.5 115t-13 103.5t-20.5 96.5t-27 95l51 -15q14 -43 26 -86.5t20 -92t12.5 -103t4.5 -118.5z" />
    <glyph glyph-name="asterisk" unicode="*" horiz-adv-x="203" 
d="M128 443l45 -134l-31 -30l-40 142l-36 -137l-36 17l47 140l-67 44l10 40l66 -54l-4 163l39 9l-2 -170l60 53l19 -37z" />
    <glyph glyph-name="plus" unicode="+" horiz-adv-x="200" 
d="M121 257v-116h-42v116h-59v40h59v115h42v-115h60v-40h-60z" />
    <glyph glyph-name="comma" unicode="," horiz-adv-x="115" 
d="M90 50q0 -15 -4 -33.5t-11 -38.5t-17 -40t-23 -37l-23 2q14 21 24.5 48.5t12.5 50.5q-7 4 -15 19t-8 29q0 7 3 16.5t8 18.5t10.5 15t10.5 6t10.5 -6t10 -15t8 -18.5t3.5 -16.5z" />
    <glyph glyph-name="hyphen" unicode="-" horiz-adv-x="148" 
d="M20 257v40h108v-40h-108z" />
    <glyph glyph-name="hyphen" unicode="&#xad;" horiz-adv-x="148" 
d="M20 257v40h108v-40h-108z" />
    <glyph glyph-name="period" unicode="." horiz-adv-x="115" 
d="M89 50q0 -7 -3 -16.5t-7.5 -18t-10.5 -14.5t-11 -6q-4 0 -10 6t-10.5 14.5t-8 18t-3.5 16.5t3.5 16.5t8 18.5t10.5 15t10 6q5 0 11 -6t10.5 -15t7.5 -18.5t3 -16.5z" />
    <glyph glyph-name="slash" unicode="/" horiz-adv-x="219" 
d="M44 -8l-36 12l167 641l35 -12z" />
    <glyph glyph-name="zero" unicode="0" horiz-adv-x="248" 
d="M174 319q0 60 -3 111t-9.5 88.5t-16 58.5t-21.5 21t-21.5 -21t-15.5 -58.5t-9 -88.5t-3 -111t3 -111t9 -88t15.5 -58t21.5 -21t21.5 21t16 58t9.5 88t3 111zM225 319q0 -71 -5 -130.5t-17 -102.5t-31.5 -67t-47.5 -24t-47 24t-31 67t-17 102.5t-5 130.5t5 130.5t17 102.5
t31 67t47 24t47.5 -24t31.5 -67t17 -102.5t5 -130.5z" />
    <glyph glyph-name="one" unicode="1" horiz-adv-x="147" 
d="M60 0v590l-46 -8l3 47l91 13v-642h-48z" />
    <glyph glyph-name="two" unicode="2" horiz-adv-x="186" 
d="M10 0v12q23 58 42 121.5t32.5 124t20.5 113.5t7 89q0 40 -3.5 66.5t-10 43t-16 23.5t-20.5 7q-15 0 -25.5 -9t-15.5 -23l-2 48q5 9 17.5 18t33.5 9q20 0 36.5 -9.5t28.5 -30.5t18.5 -55.5t6.5 -84.5q0 -38 -7 -90t-19.5 -109t-29 -114.5t-35.5 -106.5h103v-43h-162z" />
    <glyph glyph-name="three" unicode="3" horiz-adv-x="178" 
d="M161 195q0 -97 -23 -148.5t-74 -51.5q-19 0 -31 7t-18 15l-2 54q5 -11 16 -22t27 -11q28 0 42 41t14 116q0 28 -4 53t-10.5 43.5t-15 29.5t-17.5 11q-5 0 -8 -0.5t-7 -2.5l-3 43q21 19 34.5 51t13.5 72q0 42 -9.5 73.5t-31.5 31.5q-12 0 -20 -7.5t-13 -16.5l-3 46
q5 7 16 14t28 7q40 0 60.5 -40.5t20.5 -103.5q0 -42 -12 -78.5t-31 -53.5q27 -8 44 -54.5t17 -117.5z" />
    <glyph glyph-name="four" unicode="4" horiz-adv-x="208" 
d="M122 523q-5 -26 -11.5 -53t-11.5 -47l-52 -197h74v197q0 23 0.5 48.5t2.5 50.5zM166 183v-183h-45v183h-111l-5 44l114 411h47v-412h31v-43h-31z" />
    <glyph glyph-name="five" unicode="5" horiz-adv-x="194" 
d="M174 187q0 -43 -5.5 -78.5t-17 -60.5t-29.5 -39t-44 -14q-14 0 -28.5 5.5t-22.5 15.5l-3 53q7 -14 18.5 -22.5t25.5 -8.5q29 0 43 41.5t14 107.5q0 32 -3.5 60t-11 48.5t-18.5 32.5t-25 12q-11 0 -21 -4.5t-16 -10.5l4 313h124l-3 -43h-74l-3 -217q5 2 16 2
q19 0 33.5 -14.5t25 -40t16 -61t5.5 -77.5z" />
    <glyph glyph-name="six" unicode="6" horiz-adv-x="222" 
d="M153 189q0 71 -12 114t-31 43q-22 0 -33 -26q-1 -12 -3 -41t-2 -74q0 -78 12 -122.5t30 -44.5q9 0 16.5 11.5t12.5 31.5t7.5 47.5t2.5 60.5zM202 190q0 -42 -4.5 -78t-15 -62t-27.5 -40.5t-41 -14.5q-47 0 -69.5 56.5t-22.5 156.5q0 65 8.5 127.5t23.5 119t35.5 105
t44.5 84.5l46 -14q-16 -24 -30.5 -54.5t-27 -64.5t-22 -69.5t-15.5 -69.5q5 7 12.5 12.5t18.5 5.5q38 0 62 -53t24 -147z" />
    <glyph glyph-name="seven" unicode="7" horiz-adv-x="183" 
d="M81 0h-49l87 595h-112v43h166z" />
    <glyph glyph-name="eight" unicode="8" horiz-adv-x="231" 
d="M158 163q0 58 -15.5 94.5t-30.5 50.5q-15 -15 -29 -51t-14 -94q0 -57 14 -91.5t32 -34.5q17 0 30 34.5t13 91.5zM154 498q0 45 -11.5 74t-27.5 29q-15 0 -25.5 -29t-10.5 -74q0 -48 10.5 -78t27.5 -50q17 19 27 49.5t10 78.5zM208 163q0 -77 -24 -122.5t-68 -45.5
q-45 0 -69.5 45.5t-24.5 122.5q0 69 18.5 112.5t38.5 63.5q-21 27 -35 67t-14 92q0 66 23 105.5t62 39.5q38 0 62 -39t24 -107q0 -51 -15.5 -94t-34.5 -64q18 -18 37.5 -62.5t19.5 -113.5z" />
    <glyph glyph-name="nine" unicode="9" horiz-adv-x="222" 
d="M150 433q0 78 -12 122.5t-30 44.5q-9 0 -16.5 -11.5t-12.5 -31.5t-7.5 -47.5t-2.5 -60.5q0 -71 12 -114t31 -43q21 0 32 26q2 12 4 41t2 74zM200 430q0 -64 -8 -127t-23 -119.5t-35.5 -105t-44.5 -84.5l-47 14q16 24 30.5 54.5t27 64.5t21.5 69.5t15 69.5
q-4 -7 -11.5 -12.5t-18.5 -5.5q-38 0 -62 53t-24 147q0 42 5 78t15.5 62t27 40.5t40.5 14.5q47 0 69.5 -56.5t22.5 -156.5z" />
    <glyph glyph-name="colon" unicode=":" horiz-adv-x="115" 
d="M89 50q0 -7 -3 -16.5t-7.5 -18t-10.5 -14.5t-11 -6q-4 0 -10 6t-10.5 14.5t-8 18t-3.5 16.5t3.5 16.5t8 18.5t10.5 15t10 6q5 0 11 -6t10.5 -15t7.5 -18.5t3 -16.5zM89 402q0 -7 -3 -16.5t-7.5 -18t-10.5 -14.5t-11 -6q-4 0 -10 6t-10.5 14.5t-8 18t-3.5 16.5t3.5 16.5
t8 18.5t10.5 15t10 6q5 0 11 -6t10.5 -15t7.5 -18.5t3 -16.5z" />
    <glyph glyph-name="semicolon" unicode=";" horiz-adv-x="115" 
d="M90 50q0 -15 -4 -33.5t-11 -38.5t-17 -40t-23 -37l-23 2q14 21 24.5 48.5t12.5 50.5q-7 4 -15 19t-8 29q0 7 3 16.5t8 18.5t10.5 15t10.5 6t10.5 -6t10 -15t8 -18.5t3.5 -16.5zM89 402q0 -7 -3 -16.5t-7.5 -18t-10.5 -14.5t-11 -6q-4 0 -10 6t-10.5 14.5t-8 18t-3.5 16.5
t3.5 16.5t8 18.5t10.5 15t10 6q5 0 11 -6t10.5 -15t7.5 -18.5t3 -16.5z" />
    <glyph glyph-name="semicolon" unicode="&#x37e;" horiz-adv-x="115" 
d="M90 50q0 -15 -4 -33.5t-11 -38.5t-17 -40t-23 -37l-23 2q14 21 24.5 48.5t12.5 50.5q-7 4 -15 19t-8 29q0 7 3 16.5t8 18.5t10.5 15t10.5 6t10.5 -6t10 -15t8 -18.5t3.5 -16.5zM89 402q0 -7 -3 -16.5t-7.5 -18t-10.5 -14.5t-11 -6q-4 0 -10 6t-10.5 14.5t-8 18t-3.5 16.5
t3.5 16.5t8 18.5t10.5 15t10 6q5 0 11 -6t10.5 -15t7.5 -18.5t3 -16.5z" />
    <glyph glyph-name="less" unicode="&#x3c;" horiz-adv-x="158" 
d="M107 137l-90 140l89 140l29 -26l-72 -114l72 -114z" />
    <glyph glyph-name="equal" unicode="=" horiz-adv-x="200" 
d="M20 190v40h161v-40h-161zM20 324v39h161v-39h-161z" />
    <glyph glyph-name="greater" unicode="&#x3e;" horiz-adv-x="158" 
d="M51 137l-27 26l72 114l-72 114l28 26l88 -140z" />
    <glyph glyph-name="question" unicode="?" horiz-adv-x="190" 
d="M119 50q0 -7 -3.5 -16.5t-8.5 -18t-10.5 -14.5t-10.5 -6t-11 6t-11.5 14.5t-9 18t-3.5 16.5t3.5 16.5t9 18.5t11.5 15t11 6t10.5 -6t10.5 -15t8.5 -18.5t3.5 -16.5zM168 499q0 -48 -13.5 -90t-30.5 -81q-12 -28 -18.5 -61.5t-6.5 -68.5q0 -13 1 -28.5t3 -29.5l-43 15
q-2 11 -3.5 25t-1.5 28q0 42 8 78.5t22 70.5q16 40 24.5 70.5t8.5 67.5q0 48 -13.5 76t-38.5 28q-17 0 -29 -9.5t-18 -22.5l-3 50q6 8 19 17t39 9q43 0 68.5 -38t25.5 -106z" />
    <glyph glyph-name="at" unicode="@" horiz-adv-x="325" 
d="M201 459q-5 4 -12 4q-10 0 -20 -17t-18 -46t-13 -67.5t-5 -80.5q0 -38 5 -62t16 -24q26 0 32 82zM301 386q0 -40 -3.5 -84.5t-12.5 -81.5t-23 -61t-35 -24q-29 0 -34 36q-5 -16 -16 -26.5t-27 -10.5q-14 0 -23.5 9.5t-15.5 25.5t-9 37.5t-3 46.5q0 54 7 99t19.5 77
t30.5 49.5t39 17.5q14 0 24 -7.5t15 -18.5l-16 -236q-1 -12 -1.5 -21.5t-0.5 -16.5q0 -29 12 -29q8 0 15.5 16.5t13.5 46t9.5 70t3.5 87.5t-5.5 88.5t-16.5 72.5t-26.5 48.5t-36.5 17.5q-24 0 -47.5 -27t-41.5 -75t-29 -112.5t-11 -139.5q0 -115 22 -175.5t60 -60.5
q28 0 47 30l-7 -40q-15 -19 -43 -19q-57 0 -84 70.5t-27 194.5q0 82 12 152t33 121.5t51 80.5t66 29q30 0 52 -19.5t36 -54t20.5 -81.5t6.5 -102z" />
    <glyph glyph-name="A" unicode="A" horiz-adv-x="238" 
d="M128 408q-2 21 -5 43.5t-5 49.5h-2q-2 -27 -4.5 -50t-4.5 -43l-22 -183h65zM176 0l-22 185h-73l-23 -185h-45l84 639h44l85 -639h-50z" />
    <glyph glyph-name="B" unicode="B" horiz-adv-x="227" 
d="M159 187q0 72 -18.5 109t-41.5 37h-22v-291h22q23 0 41.5 36.5t18.5 108.5zM138 486q0 32 -5 53t-12 34t-15.5 18.5t-16.5 5.5h-12v-222h13q7 0 15.5 5.5t15.5 18.5t12 34.5t5 52.5zM210 186q0 -86 -29 -136t-79 -50h-72v638h61q17 0 34 -8t30.5 -26t22 -47t8.5 -71
q0 -54 -14 -88t-34 -40q12 -2 25 -14t23.5 -33.5t17 -52.5t6.5 -72z" />
    <glyph glyph-name="C" unicode="C" horiz-adv-x="203" 
d="M189 571q-5 8 -15.5 16.5t-26.5 8.5q-20 0 -33.5 -21t-22 -58t-12 -88t-3.5 -110t3.5 -110t12 -88t22 -58t33.5 -21q15 0 26.5 8t17.5 19l-4 -55q-6 -8 -19 -13.5t-30 -5.5q-31 0 -53 24t-35.5 66.5t-19.5 102t-6 131.5q0 71 6 130.5t19.5 102.5t35.5 67t53 24
q20 0 34 -8t20 -16z" />
    <glyph glyph-name="D" unicode="D" horiz-adv-x="254" 
d="M177 319q0 77 -6.5 129t-17.5 84.5t-26 46.5t-32 14h-15v-548h15q17 0 32 14t26 46.5t17.5 85t6.5 128.5zM229 319q0 -91 -10 -152t-28 -98t-42 -53t-52 -16h-67v638h67q28 0 52 -16t42 -53t28 -98t10 -152z" />
    <glyph glyph-name="E" unicode="E" horiz-adv-x="192" 
d="M30 0v638h146v-45h-96v-249h81v-45h-81v-254h106v-45h-156z" />
    <glyph glyph-name="F" unicode="F" horiz-adv-x="190" 
d="M82 593v-249h88v-45h-88v-299h-51v638h154v-45h-103z" />
    <glyph glyph-name="G" unicode="G" horiz-adv-x="241" 
d="M219 51q-20 -56 -82 -56q-31 0 -52.5 24t-35 66.5t-19.5 102t-6 131.5q0 71 6 130.5t20 102.5t36 67t53 24q22 0 37.5 -9.5t21.5 -20.5l-4 -53q-5 13 -17.5 24.5t-29.5 11.5q-20 0 -34 -21t-22.5 -58t-12.5 -88t-4 -110t4 -110t12 -88.5t20 -59t28 -21.5q27 0 37 28v203
h-47v44h91v-264z" />
    <glyph glyph-name="H" unicode="H" horiz-adv-x="256" 
d="M175 0v299h-95v-299h-50v638h50v-294h95v294h51v-638h-51z" />
    <glyph glyph-name="I" unicode="I" horiz-adv-x="121" 
d="M35 0v638h50v-638h-50z" />
    <glyph glyph-name="J" unicode="J" horiz-adv-x="132" 
d="M95 94q0 -40 -6.5 -68t-18 -48t-27.5 -33t-34 -23l-25 38q14 8 25 17.5t19 25.5t12 39.5t4 58.5v537h51v-544z" />
    <glyph glyph-name="K" unicode="K" horiz-adv-x="226" 
d="M168 0l-89 319v-319h-49v638h49v-310l80 310h49l-84 -310l96 -328h-52z" />
    <glyph glyph-name="L" unicode="L" horiz-adv-x="190" 
d="M30 0v638h50v-593h106v-45h-156z" />
    <glyph glyph-name="M" unicode="M" horiz-adv-x="345" 
d="M273 0l-9 293q-1 35 -1.5 70t-0.5 77h-2q-5 -41 -9.5 -76.5t-9.5 -70.5l-48 -294h-39l-50 294q-5 32 -10 68.5t-10 78.5h-2q1 -43 0.5 -77.5t-1.5 -69.5l-9 -293h-46l21 638h42l58 -352q6 -38 12.5 -84.5t11.5 -90.5h2q6 44 12.5 90.5t12.5 84.5l58 352h41l22 -638h-46z
" />
    <glyph glyph-name="N" unicode="N" horiz-adv-x="261" 
d="M193 -1l-81 308q-9 34 -18.5 75t-17.5 79h-2q2 -39 2.5 -80t0.5 -74v-307h-47v638h40l79 -308q9 -36 18.5 -76.5t17.5 -76.5h2q-2 38 -2.5 79t-0.5 74v308h47v-639h-38z" />
    <glyph glyph-name="O" unicode="O" horiz-adv-x="269" 
d="M194 319q0 59 -4 110t-11.5 88t-18.5 58t-25 21q-15 0 -26 -21t-18.5 -58t-11 -88t-3.5 -110t3.5 -109.5t11 -87.5t18.5 -58t26 -21q14 0 25 21t18.5 58t11.5 87.5t4 109.5zM246 319q0 -70 -6 -129.5t-19.5 -103t-34.5 -67.5t-51 -24q-31 0 -52 24t-34 67.5t-19 103
t-6 129.5q0 71 6 130t19 102.5t34 67.5t52 24q30 0 51 -24t34.5 -67.5t19.5 -102.5t6 -130z" />
    <glyph glyph-name="P" unicode="P" horiz-adv-x="211" 
d="M151 469q0 56 -13.5 91t-36.5 35h-21v-251h22q22 0 35.5 34.5t13.5 90.5zM201 469q0 -36 -6.5 -67t-19 -54t-30 -36t-40.5 -13h-25v-299h-50v638h75q23 0 40.5 -13t30 -36t19 -54t6.5 -66z" />
    <glyph glyph-name="Q" unicode="Q" horiz-adv-x="269" 
d="M194 319q0 59 -4 110t-11.5 88t-18.5 58t-25 21q-15 0 -26 -21t-18.5 -58t-11 -88t-3.5 -110t3.5 -109.5t11 -87.5t18.5 -58t26 -21q14 0 25 21t18.5 58t11.5 87.5t4 109.5zM239 -75q-5 -2 -16 -2q-12 0 -27 8t-36 28q-13 13 -24.5 23t-20.5 15q-25 8 -42.5 34.5t-28 69
t-15.5 98t-5 120.5q0 71 6 130t19 102.5t34 67.5t52 24q30 0 51 -24t34.5 -67.5t19.5 -102.5t6 -130q0 -59 -4.5 -110.5t-13.5 -92t-23.5 -68.5t-34.5 -39v-2q8 -3 24 -21q17 -14 29 -19.5t24 -5.5q9 0 18 3z" />
    <glyph glyph-name="R" unicode="R" horiz-adv-x="231" 
d="M150 469q0 56 -13 91t-36 35h-21v-251h22q22 0 35 34.5t13 90.5zM185 0l-80 299h-25v-299h-50v638h74q23 0 41 -13t30 -36t18.5 -54t6.5 -66q0 -57 -14 -96.5t-36 -54.5l85 -318h-50z" />
    <glyph glyph-name="S" unicode="S" horiz-adv-x="187" 
d="M171 133q0 -72 -26.5 -105t-67.5 -33q-23 0 -38 9t-22 20l-3 64q5 -17 19.5 -31t34.5 -14q22 0 37.5 19.5t15.5 67.5q0 20 -3 40t-9 42t-15 48t-22 57q-15 38 -25.5 67t-17 52t-9 43t-2.5 40q0 61 24 92.5t62 31.5q19 0 31 -7t17 -15l-4 -50q-4 9 -13.5 17t-22.5 8
q-20 0 -32 -18.5t-12 -55.5q0 -29 10.5 -70t32.5 -91q18 -40 29.5 -71t18 -58t9.5 -50.5t3 -48.5z" />
    <glyph glyph-name="T" unicode="T" horiz-adv-x="197" 
d="M124 593v-593h-51v593h-71v45h193v-45h-71z" />
    <glyph glyph-name="U" unicode="U" horiz-adv-x="255" 
d="M225 107q0 -54 -26.5 -83t-71.5 -29t-71 29t-26 83v531h50v-528q0 -35 13 -53t35 -18t34.5 18t12.5 53v528h50v-531z" />
    <glyph glyph-name="V" unicode="V" horiz-adv-x="235" 
d="M137 -1h-41l-85 639h50l39 -324q4 -35 8.5 -77.5t8.5 -84.5h2q4 42 8 84.5t9 77.5l38 324h47z" />
    <glyph glyph-name="W" unicode="W" horiz-adv-x="387" 
d="M293 -1h-41l-41 326q-5 38 -9 78.5t-8 85.5h-2q-6 -90 -15 -164l-41 -326h-41l-82 639h48l39 -331q4 -35 8.5 -79.5t7.5 -86.5h2q4 42 7.5 86.5t8.5 79.5l37 331h48l37 -331q5 -38 9.5 -81t7.5 -85h2q3 41 7.5 85t8.5 81l38 331h45z" />
    <glyph glyph-name="X" unicode="X" horiz-adv-x="220" 
d="M166 0l-37 175q-5 20 -9 42.5t-8 45.5h-2q-3 -23 -7.5 -45.5t-9.5 -42.5l-38 -175h-46l74 333l-68 305h47l34 -158q4 -17 7.5 -37.5t7.5 -40.5h2q4 20 7 40t8 38l33 158h46l-67 -308l73 -330h-47z" />
    <glyph glyph-name="Y" unicode="Y" horiz-adv-x="225" 
d="M138 279v-279h-51v278l-78 360h49l38 -184q5 -21 9 -45t8 -47h2q4 23 7.5 46.5t8.5 45.5l39 184h47z" />
    <glyph glyph-name="Z" unicode="Z" horiz-adv-x="193" 
d="M10 0v10l72 389q10 47 19.5 97t18.5 96l-1 1h-91v45h146v-10l-73 -390q-9 -48 -18.5 -98.5t-18.5 -93.5l1 -1h112v-45h-167z" />
    <glyph glyph-name="bracketleft" unicode="[" horiz-adv-x="164" 
d="M31 -170v808h119v-44h-70v-720h70v-44h-119z" />
    <glyph glyph-name="backslash" unicode="\" horiz-adv-x="219" 
d="M175 -8l-167 641l36 12l166 -641z" />
    <glyph glyph-name="bracketright" unicode="]" horiz-adv-x="164" 
d="M15 -170v44h69v720h-70v44h120v-808h-119z" />
    <glyph glyph-name="asciicircum" unicode="^" horiz-adv-x="186" 
d="M149 492q-17 13 -31 28.5t-25 41.5q-10 -25 -24.5 -41t-31.5 -29l-17 21q23 17 42.5 51t30.5 69q11 -35 31 -68.5t43 -51.5z" />
    <glyph glyph-name="underscore" unicode="_" horiz-adv-x="231" 
d="M0 -149v40h233v-40h-233z" />
    <glyph glyph-name="grave" unicode="`" 
d="M130 479q-25 13 -49 32t-40 54l10 51q14 -41 41 -70.5t57 -45.5z" />
    <glyph glyph-name="a" unicode="a" horiz-adv-x="212" 
d="M126 228l-19 -3q-16 -2 -31 -29.5t-15 -76.5q0 -38 10 -60.5t23 -22.5q15 0 23.5 24.5t8.5 59.5v108zM184 -6q-14 5 -25.5 16.5t-15.5 30.5q-5 -20 -19.5 -33t-34.5 -13q-32 0 -52 31.5t-20 92.5q0 67 24 105.5t62 42.5l23 3v47q0 50 -12.5 74.5t-32.5 24.5
q-13 0 -24.5 -9.5t-16.5 -20.5l-3 47q6 10 19 17.5t32 7.5q42 0 64 -37t22 -105v-214q0 -37 10.5 -51.5t22.5 -20.5z" />
    <glyph glyph-name="b" unicode="b" horiz-adv-x="229" 
d="M159 226q0 41 -3.5 76t-10 60t-16 39t-21.5 14q-19 0 -30 -30v-331q4 -7 11.5 -11.5t16.5 -4.5q14 0 24 14t16.5 39t9.5 59.5t3 75.5zM209 226q0 -52 -6 -94.5t-19 -73t-32 -47t-46 -16.5t-46.5 12t-29.5 28v603h48v-201q6 11 15.5 16t20.5 5q24 0 42 -17.5t29.5 -48.5
t17.5 -73.5t6 -92.5z" />
    <glyph glyph-name="c" unicode="c" horiz-adv-x="177" 
d="M162 391q-5 9 -14 16.5t-23 7.5t-24.5 -14t-17.5 -39t-10.5 -59.5t-3.5 -76.5q0 -41 3.5 -75.5t10.5 -59.5t17.5 -39t25.5 -14q26 0 36 22l-2 -49q-5 -7 -16 -11.5t-27 -4.5q-49 0 -73 61.5t-24 169.5q0 109 24 170.5t73 61.5q19 0 30.5 -7t15.5 -13z" />
    <glyph glyph-name="d" unicode="d" horiz-adv-x="230" 
d="M152 384q-5 13 -14 22t-18 9q-12 0 -21.5 -14t-16 -39.5t-9.5 -60t-3 -76.5q0 -41 3 -75.5t9.5 -59t16 -38.5t21.5 -14q10 0 18.5 11t13.5 22v313zM161 0l-1 27q-5 -13 -18 -22.5t-31 -9.5q-22 0 -39 16.5t-28.5 47t-17.5 73t-6 93.5t5 93.5t16.5 73.5t29.5 48.5t44 17.5
q21 0 37 -21v201h48v-638h-39z" />
    <glyph glyph-name="e" unicode="e" horiz-adv-x="208" 
d="M147 292q0 23 -2 45.5t-6.5 40.5t-11.5 29.5t-16 11.5q-10 0 -18 -12.5t-13.5 -34t-8.5 -49.5t-4 -59h78q1 3 1.5 14t0.5 14zM192 292v-9t-0.5 -13t-1 -13t-0.5 -9l-26 -26h-97q-1 -37 2.5 -70.5t11.5 -59t20 -41t28 -15.5q14 0 25.5 7.5t17.5 19.5l-2 -49
q-7 -8 -19.5 -13.5t-29.5 -5.5q-26 0 -45 16.5t-31.5 47t-18.5 73.5t-6 95q0 51 5.5 93.5t16.5 73t28 47.5t41 17q21 0 36.5 -13.5t25.5 -36.5t14.5 -53t4.5 -63z" />
    <glyph glyph-name="f" unicode="f" horiz-adv-x="159" 
d="M167 585q-4 6 -11 10.5t-16 4.5q-25 0 -36.5 -32.5t-11.5 -89.5v-25h60l-1 -43h-59v-410h-48v410h-34v43h34v22q0 80 19.5 124t66.5 44q14 0 24 -4.5t15 -9.5z" />
    <glyph glyph-name="g" unicode="g" horiz-adv-x="211" 
d="M148 -40q0 35 -9 65t-29 37l-12 4q-14 -10 -22.5 -33t-8.5 -72q0 -20 2.5 -38.5t7.5 -32.5t12.5 -22.5t17.5 -8.5q19 0 30 30.5t11 70.5zM139 313q0 50 -9.5 79.5t-24.5 29.5t-24 -29.5t-9 -79.5q0 -49 9 -78t24 -29t24.5 29t9.5 78zM195 -38q0 -29 -5.5 -55t-16.5 -45
t-27.5 -30t-38.5 -11t-38.5 11t-27.5 30.5t-16.5 45t-5.5 55.5q0 59 14.5 87t31.5 40l-30 37q1 18 9.5 34.5t21.5 22.5q-17 15 -28 45t-11 85q0 64 19.5 104t58.5 40q9 0 17.5 -2.5t13.5 -6.5q14 -9 27 -9q22 0 29 16l2 -43q-6 -13 -23 -13q5 -11 9 -34t4 -52
q0 -62 -18.5 -102t-55.5 -42q-13 0 -20.5 -11t-7.5 -21q0 -8 7.5 -19t18.5 -14l13 -4q18 -6 32 -19t23.5 -31.5t14 -41.5t4.5 -47z" />
    <glyph glyph-name="h" unicode="h" horiz-adv-x="229" 
d="M154 0v342q0 37 -9.5 55t-26.5 18t-28.5 -19.5t-11.5 -54.5v-341h-48v638h48v-215q5 13 17 24t32 11q39 0 57 -30t18 -80v-348h-48z" />
    <glyph glyph-name="i" unicode="i" horiz-adv-x="119" 
d="M35 0v453h48v-453h-48zM87 578q0 -6 -3 -14t-7 -15.5t-9 -12.5t-9 -5t-9 5t-9 12.5t-7 15.5t-3 14t3 14.5t7 16t9 12.5t9 5t9 -5t9 -12.5t7 -16t3 -14.5z" />
    <glyph glyph-name="j" unicode="j" horiz-adv-x="119" 
d="M83 7q0 -75 -19.5 -118.5t-55.5 -64.5l-23 35q28 17 39 52.5t11 100.5v441h48v-446zM87 578q0 -6 -3 -14t-7 -15.5t-9 -12.5t-9 -5t-9 5t-9 12.5t-7 15.5t-3 14t3 14.5t7 16t9 12.5t9 5t9 -5t9 -12.5t7 -16t3 -14.5z" />
    <glyph glyph-name="k" unicode="k" horiz-adv-x="208" 
d="M150 0l-72 227v-227h-48v638h48v-407l64 222h48l-65 -221l76 -232h-51z" />
    <glyph glyph-name="l" unicode="l" horiz-adv-x="126" 
d="M91 -7q-26 11 -41 37t-15 71v537h48v-535q0 -31 7 -48t23 -27z" />
    <glyph glyph-name="m" unicode="m" horiz-adv-x="343" 
d="M268 0v344q0 36 -9.5 53.5t-24.5 17.5q-16 0 -27.5 -18.5t-11.5 -53.5v-343h-48v344q0 71 -34 71q-16 0 -27 -18.5t-11 -53.5v-343h-48v453h44v-33q4 12 16.5 25t35.5 13t38.5 -13t21.5 -36q5 23 21 36t39 13q38 0 55.5 -29.5t17.5 -78.5v-350h-48z" />
    <glyph glyph-name="n" unicode="n" horiz-adv-x="225" 
d="M150 0v342q0 73 -36 73q-16 0 -27.5 -19.5t-11.5 -54.5v-341h-48v453h44v-35q4 14 17 27t36 13q38 0 56.5 -30t18.5 -80v-348h-49z" />
    <glyph glyph-name="o" unicode="o" horiz-adv-x="228" 
d="M159 226q0 41 -3 76t-9 60t-14 39t-19 14q-10 0 -18.5 -14t-14 -39t-8.5 -60t-3 -76t3 -75.5t8.5 -59.5t14 -39t18.5 -14q11 0 19 14t14 39t9 59.5t3 75.5zM209 226q0 -51 -5.5 -93t-17 -73t-29.5 -48t-43 -17t-43 17t-29 48t-16.5 73t-5.5 93t5.5 93.5t16.5 73.5t29 48
t43 17t43 -17t29.5 -48t17 -73.5t5.5 -93.5z" />
    <glyph glyph-name="p" unicode="p" horiz-adv-x="230" 
d="M159 228q0 41 -3 75.5t-9.5 59t-15.5 38.5t-21 14q-11 0 -19 -11t-13 -22v-313q4 -13 13 -22t19 -9q12 0 21 14t15.5 39.5t9.5 60t3 76.5zM209 228q0 -51 -5.5 -93.5t-16.5 -73.5t-29 -48.5t-44 -17.5q-21 0 -36 21v-186h-48v623h38l2 -27q6 13 18 22.5t30 9.5
q23 0 40 -16.5t28 -47t17 -73t6 -93.5z" />
    <glyph glyph-name="q" unicode="q" horiz-adv-x="229" 
d="M151 399q-5 7 -12 11.5t-16 4.5q-14 0 -24 -14t-16.5 -39t-9.5 -59.5t-3 -75.5t3 -76t9.5 -60t16 -39t21.5 -14q18 0 31 30v331zM151 -170v186q-6 -11 -15.5 -16t-20.5 -5q-25 0 -43 17.5t-29.5 48.5t-17 73.5t-5.5 92.5q0 52 6 94.5t18 73t30.5 47t44.5 16.5q16 0 29 -5
t23 -13l8 21h20v-631h-48z" />
    <glyph glyph-name="r" unicode="r" horiz-adv-x="159" 
d="M152 402h-6q-17 0 -29.5 -10.5t-20.5 -27.5t-12 -39.5t-4 -45.5v-279h-48v453h45v-61q5 28 23 46t50 18z" />
    <glyph glyph-name="s" unicode="s" horiz-adv-x="169" 
d="M152 100q0 -48 -23 -76.5t-59 -28.5q-22 0 -34.5 8t-17.5 16l-4 57q6 -14 18 -25.5t29 -11.5q20 0 31 15.5t11 41.5t-8.5 52.5t-27.5 63.5q-14 27 -23.5 47.5t-15 38t-7.5 33t-2 33.5q0 46 21.5 70t53.5 24q17 0 27 -6.5t13 -11.5l-3 -47q-4 8 -11.5 14.5t-19.5 6.5
q-15 0 -24.5 -13t-9.5 -33q0 -26 7 -48.5t25 -55.5q16 -29 26.5 -51.5t16.5 -41t8.5 -36t2.5 -35.5z" />
    <glyph glyph-name="t" unicode="t" horiz-adv-x="165" 
d="M157 410h-64v-306q0 -64 31 -64q17 0 25 14l-3 -46q-4 -5 -12.5 -8.5t-22.5 -3.5q-31 0 -49 26t-18 73v315h-35v43h36v91l48 25v-116h65z" />
    <glyph glyph-name="u" unicode="u" horiz-adv-x="225" 
d="M154 0v32q-4 -13 -17 -25t-36 -12q-38 0 -56 30t-18 80v348h48v-342q0 -73 36 -73q16 0 27.5 19.5t11.5 54.5v341h49v-453h-45z" />
    <glyph glyph-name="v" unicode="v" horiz-adv-x="210" 
d="M124 -1h-37l-73 454h46l32 -222q5 -26 8 -54t6 -55h2q2 27 5 54.5t7 54.5l34 222h42z" />
    <glyph glyph-name="w" unicode="w" horiz-adv-x="340" 
d="M257 -1h-37l-34 228q-5 29 -8.5 57t-5.5 56h-2q-3 -29 -6.5 -57.5t-7.5 -55.5l-35 -228h-36l-71 454h46l32 -221q3 -27 6.5 -55t5.5 -55h2q2 27 5 54.5t7 54.5l32 222h44l31 -221q4 -27 7.5 -55t5.5 -55h2q3 56 12 109l32 222h42z" />
    <glyph glyph-name="x" unicode="x" horiz-adv-x="204" 
d="M144 0l-30 121q-4 14 -7 30t-5 32h-2q-2 -17 -5.5 -32.5t-7.5 -29.5l-32 -121h-43l61 232l-57 221h48l26 -107q3 -12 6.5 -25.5t5.5 -27.5h2q3 14 6 27.5t7 26.5l27 106h44l-57 -215l61 -238h-48z" />
    <glyph glyph-name="y" unicode="y" horiz-adv-x="218" 
d="M133 54q-10 -55 -20.5 -92.5t-22.5 -63t-26 -43t-31 -31.5l-22 34q12 11 22 24.5t19.5 34.5t18.5 52.5t17 77.5l-76 406h45l37 -203q5 -24 8.5 -50t6.5 -52h2q4 26 7.5 51.5t8.5 50.5l35 203h44z" />
    <glyph glyph-name="z" unicode="z" horiz-adv-x="172" 
d="M9 0v8l57 265q7 35 14.5 70t14.5 65l-1 2h-68v43h124v-8l-57 -270q-7 -33 -14.5 -66.5t-14.5 -63.5l1 -2h88v-43h-144z" />
    <glyph glyph-name="braceleft" unicode="{" horiz-adv-x="190" 
d="M167 -175q-33 0 -54.5 17.5t-34 48.5t-17.5 75t-5 96q0 54 -11.5 102.5t-40.5 75.5q29 27 40.5 74t11.5 100q0 51 5 93t17.5 72.5t34 47t54.5 16.5l13 -41q-25 0 -40 -14.5t-22.5 -39t-10 -58t-2.5 -72.5q0 -56 -11.5 -104.5t-38.5 -73.5q27 -25 38.5 -75t11.5 -107
q0 -41 2.5 -76t10 -60.5t22.5 -40t40 -14.5z" />
    <glyph glyph-name="bar" unicode="|" horiz-adv-x="105" 
d="M32 -170v808h40v-808h-40z" />
    <glyph glyph-name="braceright" unicode="}" horiz-adv-x="190" 
d="M186 240q-29 -27 -40.5 -75.5t-11.5 -102.5q0 -52 -5 -96t-18 -75t-34 -48.5t-54 -17.5l-13 42q25 0 39.5 14.5t22.5 40t10.5 60.5t2.5 76q0 57 11.5 107t37.5 75q-26 25 -37.5 73.5t-11.5 104.5q0 39 -2.5 72.5t-10.5 58t-22.5 39t-39.5 14.5l13 41q33 0 54 -16.5
t34 -47t18 -72.5t5 -93q0 -53 11.5 -100t40.5 -74z" />
    <glyph glyph-name="asciitilde" unicode="~" horiz-adv-x="179" 
d="M159 278q-11 -20 -33.5 -33.5t-42.5 -13.5l-8 49q-16 -2 -32 -17.5t-27 -32.5l4 43q13 20 35 33.5t41 14.5l8 -49q16 1 32.5 17t27.5 33z" />
    <glyph glyph-name="nonbreakingspace" unicode="&#xa0;" horiz-adv-x="56" 
 />
    <glyph glyph-name="exclamdown" unicode="&#xa1;" horiz-adv-x="122" 
d="M33 0l6 495l41 -13l5 -482h-52zM92 588q0 -7 -3 -16.5t-8 -18.5t-10 -15t-10 -6t-11 6t-10.5 15t-7.5 18.5t-3 16.5t3 16.5t7.5 18t10.5 14.5t11 6t10 -6t10 -14.5t8 -18t3 -16.5z" />
    <glyph glyph-name="cent" unicode="&#xa2;" horiz-adv-x="179" 
d="M162 575q-5 9 -14 16.5t-23 7.5t-24.5 -14t-17.5 -39t-10.5 -59.5t-3.5 -76.5q0 -41 3.5 -75.5t10.5 -59t17.5 -38.5t25.5 -14q26 0 36 22l-2 -49q-10 -13 -32 -16v-69h-31v72q-38 13 -57.5 72.5t-19.5 154.5q0 97 19.5 156.5t57.5 72.5v75h31v-73q14 -1 22.5 -7
t12.5 -12z" />
    <glyph glyph-name="sterling" unicode="&#xa3;" horiz-adv-x="206" 
d="M189 -5q-14 5 -32.5 7.5t-36.5 2.5q-20 0 -39 -2.5t-33 -7.5l-28 20q14 45 19.5 96.5t5.5 122.5v64h-32v33h32v123q0 94 23 141.5t71 47.5q27 0 37 -14l-2 -44q-4 6 -11 10.5t-16 4.5q-54 0 -54 -144v-125h64l-3 -33h-61v-64q0 -69 -5 -115.5t-13 -76.5q9 4 21 5t26 1
q20 0 37.5 -2.5t32.5 -8.5z" />
    <glyph glyph-name="currency" unicode="&#xa4;" horiz-adv-x="228" 
d="M158 277q0 48 -13 82.5t-31 34.5t-30.5 -34.5t-12.5 -82.5q0 -49 12.5 -83.5t30.5 -34.5q9 0 17 9.5t14 25.5t9.5 37.5t3.5 45.5zM183 91l-29 57q-18 -24 -40 -24t-40 26l-31 -59l-27 20l35 75q-14 40 -14 91q0 24 3.5 46.5t9.5 40.5l-35 76l27 20q6 -9 12 -20
q12 -20 18 -39q19 28 42 28t41 -26l29 58l28 -21l-34 -73q6 -19 10 -41.5t4 -48.5t-4 -50t-11 -44l35 -72z" />
    <glyph glyph-name="yen" unicode="&#xa5;" horiz-adv-x="223" 
d="M155 367h43v-33h-50l-12 -55v-3h62v-34h-62v-242h-49v242h-60v34h60v2l-12 56h-48v33h40l-58 271h48l38 -184q5 -21 9 -45t8 -47h2q4 23 7.5 46.5t8.5 45.5l38 184h46z" />
    <glyph glyph-name="brokenbar" unicode="&#xa6;" horiz-adv-x="105" 
d="M32 -170v346h40v-346h-40zM32 294v344h40v-344h-40z" />
    <glyph glyph-name="section" unicode="&#xa7;" horiz-adv-x="194" 
d="M69 367l-12 -88l69 -182l11 88zM172 -55q0 -60 -23.5 -92t-61.5 -32q-19 0 -31 7.5t-17 15.5l4 49q4 -9 13.5 -16.5t22.5 -7.5q20 0 32 18t12 56q0 54 -19 104l-79 208l18 143q-9 27 -14.5 57t-5.5 64q0 61 23.5 92.5t61.5 31.5q19 0 31 -7t17 -15l-4 -50q-4 9 -13.5 17
t-22.5 8q-20 0 -32.5 -18.5t-12.5 -55.5q0 -53 20 -105l80 -209l-19 -143q9 -27 14.5 -57t5.5 -63z" />
    <glyph glyph-name="dieresis" unicode="&#xa8;" 
d="M79 524q0 -6 -2.5 -14t-6.5 -14.5t-8.5 -11.5t-8.5 -5t-8.5 5t-8.5 11.5t-6.5 14.5t-2.5 14t2.5 14t6.5 15.5t8.5 12.5t8.5 5t8.5 -5t8.5 -12.5t6.5 -15.5t2.5 -14zM162 524q0 -6 -3 -14t-7 -14.5t-8.5 -11.5t-7.5 -5q-4 0 -8.5 5t-8.5 11.5t-7 14.5t-3 14t3 14t7 15.5
t8.5 12.5t8.5 5q3 0 7.5 -5t8.5 -12.5t7 -15.5t3 -14z" />
    <glyph glyph-name="copyright" unicode="&#xa9;" horiz-adv-x="313" 
d="M194 346q-4 5 -9 10t-13 5q-16 0 -24.5 -31.5t-8.5 -82.5q0 -52 8.5 -82.5t24.5 -30.5q13 0 23 14l-4 -35q-7 -10 -27 -10q-29 0 -44.5 37.5t-15.5 106.5t15.5 107t43.5 38q12 0 20 -4t13 -9zM262 250q0 51 -8 93t-22 72t-34 46.5t-43 16.5t-42.5 -16.5t-34 -46.5
t-22.5 -72t-8 -93q0 -52 8 -94t22.5 -72t34 -46.5t42.5 -16.5t43 16.5t34 46.5t22 72t8 94zM291 250q0 -57 -9.5 -103.5t-27.5 -80.5t-43 -52.5t-56 -18.5t-56.5 18.5t-42.5 52.5t-26.5 80.5t-9.5 103.5q0 56 9.5 102.5t26.5 80.5t42.5 52.5t56.5 18.5t56 -18.5t43 -52.5
t27.5 -80.5t9.5 -102.5z" />
    <glyph glyph-name="ordfeminine" unicode="&#xaa;" horiz-adv-x="174" 
d="M102 458l-14 -1q-12 -2 -23.5 -24t-11.5 -61q0 -30 7.5 -46.5t17.5 -16.5q12 0 18 18t6 46v85zM116 156q0 -6 -2.5 -13.5t-6.5 -14.5t-8.5 -12t-8.5 -5t-8.5 5t-8.5 12t-6.5 14.5t-2.5 13.5t2.5 14t6.5 15t8.5 12t8.5 5t8.5 -5t8.5 -12t6.5 -15t2.5 -14zM149 273
q-10 2 -18.5 10.5t-12.5 21.5q-5 -14 -17.5 -23t-26.5 -9q-26 0 -42.5 25t-16.5 75q0 54 19 85.5t50 34.5l18 2v35q0 76 -34 76q-12 0 -21.5 -9t-13.5 -17l-3 42q5 8 16 15t27 7q34 0 52.5 -30.5t18.5 -85.5v-169q0 -29 7.5 -40.5t17.5 -16.5z" />
    <glyph glyph-name="guillemotleft" unicode="&#xab;" horiz-adv-x="228" 
d="M99 130q-6 19 -16 39.5t-22.5 40t-27 37t-29.5 30.5q15 13 29.5 30.5t27 37t22.5 40t16 39.5l22 -23q-11 -38 -30 -72t-37 -52q18 -18 37 -52t30 -72zM193 130q-7 19 -17 39.5t-22.5 40t-26.5 37t-29 30.5q15 13 29 30.5t26.5 37t22.5 40t17 39.5l21 -23
q-11 -38 -29.5 -72t-37.5 -52q19 -18 37.5 -52t29.5 -72z" />
    <glyph glyph-name="logicalnot" unicode="&#xac;" horiz-adv-x="229" 
d="M162 178v79h-142v40h184v-119h-42z" />
    <glyph glyph-name="registered" unicode="&#xae;" horiz-adv-x="238" 
d="M132 527q0 17 -4.5 29t-11.5 12h-6v-83h6q8 0 12 11.5t4 30.5zM147 356l-32 106h-5v-104h-22v232h29q17 0 28 -18.5t11 -44.5q0 -20 -5.5 -35.5t-14.5 -22.5l29 -94zM196 473q0 66 -21.5 107.5t-56.5 41.5q-16 0 -30 -11t-24.5 -31t-16 -47t-5.5 -60q0 -67 21.5 -109
t54.5 -42q35 0 56.5 42t21.5 109zM219 473q0 -37 -7.5 -68.5t-21 -54.5t-32 -35.5t-40.5 -12.5q-21 0 -39.5 12.5t-31.5 35.5t-20.5 54.5t-7.5 68.5t7.5 68.5t20.5 54t31.5 35t39.5 12.5q22 0 40.5 -12.5t32 -35t21 -54t7.5 -68.5z" />
    <glyph glyph-name="macron" unicode="&#xaf;" 
d="M34 491v33h121v-33h-121z" />
    <glyph glyph-name="macron" unicode="&#x2c9;" 
d="M34 491v33h121v-33h-121z" />
    <glyph glyph-name="degree" unicode="&#xb0;" horiz-adv-x="159" 
d="M106 562q0 23 -7.5 39t-19.5 16q-11 0 -19 -16t-8 -39t8 -39t19 -16q12 0 19.5 16t7.5 39zM136 562q0 -33 -16 -56.5t-41 -23.5q-24 0 -39.5 23.5t-15.5 56.5q0 34 15.5 57.5t39.5 23.5q25 0 41 -23.5t16 -57.5z" />
    <glyph glyph-name="plusminus" unicode="&#xb1;" horiz-adv-x="400" 
d="M364 -7q-25 11 -40 37t-15 71v494q-8 5 -22 5q-31 0 -46 -34.5t-15 -95.5v-17h43l-4 -43h-39v-410h-48v410h-86v-410h-48v410h-34v43h34v20q0 81 20.5 122.5t67.5 41.5q26 0 38 -14l-1 -44q-8 15 -28 15q-26 0 -37.5 -30.5t-11.5 -87.5v-23h86v15q0 79 26 127t83 48
q27 0 44.5 -6.5t26.5 -14.5v-519q0 -31 6.5 -48t22.5 -27z" />
    <glyph glyph-name="twosuperior" unicode="&#xb2;" horiz-adv-x="133" 
d="M7 243v8q15 36 27 75.5t21 77t14 70t5 54.5q0 48 -8 65.5t-22 17.5q-9 0 -16.5 -7.5t-12.5 -17.5l-3 32q5 9 13.5 17t22.5 8q26 0 43.5 -24.5t17.5 -87.5q0 -23 -4.5 -55t-13 -66.5t-19 -69.5t-22.5 -65h66v-32h-109z" />
    <glyph glyph-name="threesuperior" unicode="&#xb3;" horiz-adv-x="137" 
d="M116 364q0 -60 -16 -93t-48 -33q-12 0 -21.5 5.5t-14.5 12.5l-2 39q5 -13 14.5 -19t18.5 -6q33 0 33 93q0 34 -8 59t-19 25q-4 0 -6 -0.5l-6 -1.5l-2 30q13 11 21.5 31t8.5 43q0 26 -5.5 44.5t-19.5 18.5q-6 0 -12 -6t-10 -12l-2 33q4 5 11.5 10.5t18.5 5.5
q26 0 40 -25.5t14 -65.5q0 -26 -7 -47.5t-18 -32.5q16 -8 26.5 -37t10.5 -71z" />
    <glyph glyph-name="acute" unicode="&#xb4;" 
d="M150 565q-16 -35 -40 -54t-48 -32l-20 21q30 16 57.5 45.5t41.5 70.5z" />
    <glyph glyph-name="mu" unicode="&#xb5;" horiz-adv-x="329" 
d="M167 23q-17 6 -25 17t-12 22l-79 312v-351h116zM278 398h-214l152 -255q-27 -11 -41.5 -30t-14.5 -37q0 -21 8.5 -33t22.5 -20h87v375zM28 0v453h273v-453h-273z" />
    <glyph glyph-name="mu" unicode="&#x3bc;" horiz-adv-x="329" 
d="M167 23q-17 6 -25 17t-12 22l-79 312v-351h116zM278 398h-214l152 -255q-27 -11 -41.5 -30t-14.5 -37q0 -21 8.5 -33t22.5 -20h87v375zM28 0v453h273v-453h-273z" />
    <glyph glyph-name="paragraph" unicode="&#xb6;" horiz-adv-x="215" 
d="M168 593v-586q0 -75 -19.5 -119t-55.5 -65l-23 35q28 17 38.5 52.5t10.5 100.5v324h-12q-16 0 -32 10t-29 29t-21 47t-8 64q0 37 8 65.5t21 48t29.5 29.5t32.5 10h95v-45h-35z" />
    <glyph glyph-name="periodcentered" unicode="&#xb7;" horiz-adv-x="115" 
d="M89 270q0 -7 -3 -16.5t-7.5 -18t-10.5 -14.5t-11 -6q-4 0 -10 6t-10.5 14.5t-8 18t-3.5 16.5t3.5 16.5t8 18.5t10.5 15t10 6q5 0 11 -6t10.5 -15t7.5 -18.5t3 -16.5z" />
    <glyph glyph-name="periodcentered" unicode="&#x2219;" horiz-adv-x="115" 
d="M89 270q0 -7 -3 -16.5t-7.5 -18t-10.5 -14.5t-11 -6q-4 0 -10 6t-10.5 14.5t-8 18t-3.5 16.5t3.5 16.5t8 18.5t10.5 15t10 6q5 0 11 -6t10.5 -15t7.5 -18.5t3 -16.5z" />
    <glyph glyph-name="cedilla" unicode="&#xb8;" 
d="M139 -99q0 -42 -16.5 -59.5t-31.5 -17.5q-16 0 -24 11l2 31q3 -8 7.5 -11t9.5 -3q9 0 16.5 11.5t7.5 37.5t-6 38t-15 12q-2 0 -3.5 -0.5t-5.5 -0.5l5 51h23l-3 -26q13 -5 23.5 -22t10.5 -52z" />
    <glyph glyph-name="onesuperior" unicode="&#xb9;" horiz-adv-x="114" 
d="M45 243v364l-30 -4l3 31l61 9v-400h-34z" />
    <glyph glyph-name="ordmasculine" unicode="&#xba;" horiz-adv-x="197" 
d="M132 458q0 66 -8.5 107t-25.5 41t-25.5 -41t-8.5 -107q0 -67 8.5 -107.5t25.5 -40.5t25.5 40.5t8.5 107.5zM125 156q0 -6 -2.5 -13.5t-6 -14.5t-8 -12t-8.5 -5t-9 5t-9 12t-6.5 14.5t-2.5 13.5t2.5 14t6.5 15t9 12t9 5t8.5 -5t8 -12t6 -15t2.5 -14zM174 458
q0 -82 -18.5 -133.5t-57.5 -51.5t-58 51.5t-19 133.5q0 41 4.5 75t14.5 58.5t24.5 38.5t33.5 14q20 0 34 -14t23.5 -38.5t14 -58.5t4.5 -75z" />
    <glyph glyph-name="guillemotright" unicode="&#xbb;" horiz-adv-x="228" 
d="M130 277q-15 -13 -29 -30.5t-26.5 -37t-22.5 -40t-16 -39.5l-22 23q11 38 30 72t38 52q-19 18 -38 52t-30 72l22 23q6 -19 16 -39.5t22.5 -40t26.5 -37t29 -30.5zM224 277q-15 -13 -29 -30.5t-26.5 -37t-23 -40t-17.5 -39.5l-21 23q11 38 30.5 72t37.5 52
q-18 18 -37.5 52t-30.5 72l21 23q7 -19 17.5 -39.5t23 -40t26.5 -37t29 -30.5z" />
    <glyph glyph-name="onequarter" unicode="&#xbc;" horiz-adv-x="337" 
d="M261 329q-3 -17 -6 -33t-7 -30l-31 -123h43v124q0 13 0.5 29t2.5 32zM295 111v-111h-35v111h-70l-4 32l68 254h41v-254h19v-32h-19zM89 -6l-30 8l167 642l31 -8zM45 243v364l-30 -4l3 31l61 9v-400h-34z" />
    <glyph glyph-name="onehalf" unicode="&#xbd;" horiz-adv-x="350" 
d="M222 0v8q15 36 27.5 75t21 76.5t13.5 70.5t5 55q0 48 -8 65.5t-22 17.5q-9 0 -16.5 -7.5t-12.5 -18.5l-3 33q5 9 13.5 17t22.5 8q26 0 43.5 -24.5t17.5 -87.5q0 -24 -4.5 -55.5t-12.5 -66.5t-18.5 -69.5t-22.5 -64.5h66v-32h-110zM89 -6l-30 8l167 642l31 -8zM45 243v364
l-30 -4l3 31l61 9v-400h-34z" />
    <glyph glyph-name="threequarters" unicode="&#xbe;" horiz-adv-x="351" 
d="M277 329q-3 -17 -6 -33t-7 -30l-32 -123h45v124q0 13 0.5 29t1.5 32zM310 111v-111h-33v111h-71l-4 32l68 254h40v-254h20v-32h-20zM105 -6l-30 8l167 642l31 -8zM116 364q0 -60 -16 -93t-48 -33q-12 0 -21.5 5.5t-14.5 12.5l-2 39q5 -13 14.5 -19t18.5 -6q33 0 33 93
q0 34 -8 59t-19 25q-4 0 -6 -0.5l-6 -1.5l-2 30q13 11 21.5 31t8.5 43q0 26 -5.5 44.5t-19.5 18.5q-6 0 -12 -6t-10 -12l-2 33q4 5 11.5 10.5t18.5 5.5q26 0 40 -25.5t14 -65.5q0 -26 -7 -47.5t-18 -32.5q16 -8 26.5 -37t10.5 -71z" />
    <glyph glyph-name="questiondown" unicode="&#xbf;" horiz-adv-x="190" 
d="M173 22q-5 -9 -18 -18t-39 -9q-43 0 -68.5 38t-25.5 106q0 48 13 90t31 81q11 29 18 62t7 68q0 13 -1.5 28.5t-3.5 29.5l43 -15q2 -11 3.5 -25t1.5 -28q0 -42 -8 -78.5t-22 -70.5q-16 -40 -24 -70.5t-8 -67.5q0 -48 13.5 -76t38.5 -28q16 0 28.5 9.5t18.5 22.5zM139 588
q0 -7 -3.5 -16.5t-8.5 -18.5t-11 -15t-11 -6t-11 6t-11 15t-8.5 18.5t-3.5 16.5t3.5 16.5t8.5 18t11 14.5t11 6t11 -6t11 -14.5t8.5 -18t3.5 -16.5z" />
    <glyph glyph-name="Agrave" unicode="&#xc0;" horiz-adv-x="238" 
d="M128 408q-2 21 -5 43.5t-5 49.5h-2q-2 -27 -4.5 -50t-4.5 -43l-22 -183h65zM176 0l-22 185h-73l-23 -185h-45l84 639h44l85 -639h-50zM136 679q-25 13 -49 32t-40 54l10 51q14 -41 41 -70.5t57 -45.5z" />
    <glyph glyph-name="Aacute" unicode="&#xc1;" horiz-adv-x="238" 
d="M128 408q-2 21 -5 43.5t-5 49.5h-2q-2 -27 -4.5 -50t-4.5 -43l-22 -183h65zM176 0l-22 185h-73l-23 -185h-45l84 639h44l85 -639h-50zM190 765q-16 -35 -40 -54t-48 -32l-20 21q30 16 57.5 45.5t41.5 70.5z" />
    <glyph glyph-name="Acircumflex" unicode="&#xc2;" horiz-adv-x="238" 
d="M128 408q-2 21 -5 43.5t-5 49.5h-2q-2 -27 -4.5 -50t-4.5 -43l-22 -183h65zM176 0l-22 185h-73l-23 -185h-45l84 639h44l85 -639h-50zM172 679q-16 12 -29.5 27.5t-24.5 40.5q-10 -25 -24 -40.5t-30 -27.5l-18 20q23 17 42 50.5t30 68.5q11 -35 30 -68t41 -51z" />
    <glyph glyph-name="Atilde" unicode="&#xc3;" horiz-adv-x="238" 
d="M128 408q-2 21 -5 43.5t-5 49.5h-2q-2 -27 -4.5 -50t-4.5 -43l-22 -183h65zM176 0l-22 185h-73l-23 -185h-45l84 639h44l85 -639h-50zM188 730q-11 -20 -33 -33.5t-42 -14.5l-8 50q-16 -1 -32 -17t-27 -33l4 44q12 18 34.5 32t41.5 15l8 -49q16 1 32 17t27 33z" />
    <glyph glyph-name="Adieresis" unicode="&#xc4;" horiz-adv-x="238" 
d="M128 408q-2 21 -5 43.5t-5 49.5h-2q-2 -27 -4.5 -50t-4.5 -43l-22 -183h65zM176 0l-22 185h-73l-23 -185h-45l84 639h44l85 -639h-50zM104 724q0 -6 -2.5 -14t-6.5 -14.5t-8.5 -11.5t-8.5 -5t-8.5 5t-8.5 11.5t-6.5 14.5t-2.5 14t2.5 14t6.5 15.5t8.5 12.5t8.5 5t8.5 -5
t8.5 -12.5t6.5 -15.5t2.5 -14zM187 724q0 -6 -3 -14t-7 -14.5t-8.5 -11.5t-7.5 -5q-4 0 -8.5 5t-8.5 11.5t-7 14.5t-3 14t3 14t7 15.5t8.5 12.5t8.5 5q3 0 7.5 -5t8.5 -12.5t7 -15.5t3 -14z" />
    <glyph glyph-name="Aring" unicode="&#xc5;" horiz-adv-x="238" 
d="M128 408q-2 21 -5 43.5t-5 49.5h-2q-2 -27 -4.5 -50t-4.5 -43l-22 -183h65zM176 0l-22 185h-73l-23 -185h-45l84 639h44l85 -639h-50zM145 747q0 23 -8 39.5t-19 16.5t-19 -16.5t-8 -39.5t8 -38.5t19 -15.5t19 15.5t8 38.5zM174 747q0 -32 -15.5 -56t-40.5 -24t-40.5 24
t-15.5 56q0 34 15.5 57.5t40.5 23.5t40.5 -23.5t15.5 -57.5z" />
    <glyph glyph-name="AE" unicode="&#xc6;" horiz-adv-x="337" 
d="M177 581q-5 -29 -10.5 -60.5t-11.5 -58.5l-50 -234h71v235q0 25 0.5 57.5t2.5 60.5h-2zM176 0v186h-81l-39 -186h-51l144 638h173v-45h-96v-249h82v-45h-82v-254h107v-45h-157z" />
    <glyph glyph-name="Ccedilla" unicode="&#xc7;" horiz-adv-x="203" 
d="M189 571q-5 8 -15.5 16.5t-26.5 8.5q-20 0 -33.5 -21t-22 -58t-12 -88t-3.5 -110t3.5 -110t12 -88t22 -58t33.5 -21q15 0 26.5 8t17.5 19l-4 -55q-6 -8 -18 -13t-26 -6l-1 -20q12 -5 22.5 -22t10.5 -52q0 -42 -16 -59.5t-32 -17.5q-15 0 -24 11l2 31q3 -8 7.5 -11t9.5 -3
q10 0 17 11.5t7 37.5t-6 38t-15 12q-2 0 -3.5 -0.5t-4.5 -0.5l4 47q-27 7 -45.5 33.5t-30 69t-16.5 98t-5 121.5q0 71 6 130.5t19.5 102.5t35.5 67t53 24q20 0 34 -8t20 -16z" />
    <glyph glyph-name="Egrave" unicode="&#xc8;" horiz-adv-x="192" 
d="M30 0v638h146v-45h-96v-249h81v-45h-81v-254h106v-45h-156zM120 679q-25 13 -49 32t-40 54l10 51q14 -41 41 -70.5t57 -45.5z" />
    <glyph glyph-name="Eacute" unicode="&#xc9;" horiz-adv-x="192" 
d="M30 0v638h146v-45h-96v-249h81v-45h-81v-254h106v-45h-156zM177 765q-16 -35 -40 -54t-48 -32l-20 21q30 16 57.5 45.5t41.5 70.5z" />
    <glyph glyph-name="Ecircumflex" unicode="&#xca;" horiz-adv-x="192" 
d="M30 0v638h146v-45h-96v-249h81v-45h-81v-254h106v-45h-156zM154 679q-16 12 -29.5 27.5t-24.5 40.5q-10 -25 -24 -40.5t-30 -27.5l-18 20q23 17 42 50.5t30 68.5q11 -35 30 -68t41 -51z" />
    <glyph glyph-name="Edieresis" unicode="&#xcb;" horiz-adv-x="192" 
d="M30 0v638h146v-45h-96v-249h81v-45h-81v-254h106v-45h-156zM89 724q0 -6 -2.5 -14t-6.5 -14.5t-8.5 -11.5t-8.5 -5t-8.5 5t-8.5 11.5t-6.5 14.5t-2.5 14t2.5 14t6.5 15.5t8.5 12.5t8.5 5t8.5 -5t8.5 -12.5t6.5 -15.5t2.5 -14zM172 724q0 -6 -3 -14t-7 -14.5t-8.5 -11.5
t-7.5 -5q-4 0 -8.5 5t-8.5 11.5t-7 14.5t-3 14t3 14t7 15.5t8.5 12.5t8.5 5q3 0 7.5 -5t8.5 -12.5t7 -15.5t3 -14z" />
    <glyph glyph-name="Igrave" unicode="&#xcc;" horiz-adv-x="121" 
d="M35 0v638h50v-638h-50zM90 679q-25 13 -49 32t-40 54l10 51q14 -41 41 -70.5t57 -45.5z" />
    <glyph glyph-name="Iacute" unicode="&#xcd;" horiz-adv-x="121" 
d="M35 0v638h50v-638h-50zM121 765q-16 -35 -40 -54t-48 -32l-20 21q30 16 57.5 45.5t41.5 70.5z" />
    <glyph glyph-name="Icircumflex" unicode="&#xce;" horiz-adv-x="121" 
d="M35 0v638h50v-638h-50zM115 679q-16 12 -29.5 27.5t-24.5 40.5q-10 -25 -24 -40.5t-30 -27.5l-18 20q23 17 42 50.5t30 68.5q11 -35 30 -68t41 -51z" />
    <glyph glyph-name="Idieresis" unicode="&#xcf;" horiz-adv-x="121" 
d="M35 0v638h50v-638h-50zM45 724q0 -6 -2.5 -14t-6.5 -14.5t-8.5 -11.5t-8.5 -5t-8.5 5t-8.5 11.5t-6.5 14.5t-2.5 14t2.5 14t6.5 15.5t8.5 12.5t8.5 5t8.5 -5t8.5 -12.5t6.5 -15.5t2.5 -14zM128 724q0 -6 -3 -14t-7 -14.5t-8.5 -11.5t-7.5 -5q-4 0 -8.5 5t-8.5 11.5
t-7 14.5t-3 14t3 14t7 15.5t8.5 12.5t8.5 5q3 0 7.5 -5t8.5 -12.5t7 -15.5t3 -14z" />
    <glyph glyph-name="Eth" unicode="&#xd0;" horiz-adv-x="258" 
d="M180 319q0 77 -6 129t-17 84.5t-26 46.5t-33 14h-15v-252h40l-3 -40h-37v-256h15q18 0 33 14t26 46.5t17 85t6 128.5zM232 319q0 -91 -10 -152t-28 -98t-42 -53t-52 -16h-67v301h-35v40h35v297h67q28 0 52 -16t42 -53t28 -98t10 -152z" />
    <glyph glyph-name="Ntilde" unicode="&#xd1;" horiz-adv-x="261" 
d="M193 -1l-81 308q-9 34 -18.5 75t-17.5 79h-2q2 -39 2.5 -80t0.5 -74v-307h-47v638h40l79 -308q9 -36 18.5 -76.5t17.5 -76.5h2q-2 38 -2.5 79t-0.5 74v308h47v-639h-38zM201 730q-11 -20 -33 -33.5t-42 -14.5l-8 50q-16 -1 -32 -17t-27 -33l4 44q12 18 34.5 32t41.5 15
l8 -49q16 1 32 17t27 33z" />
    <glyph glyph-name="Ograve" unicode="&#xd2;" horiz-adv-x="269" 
d="M194 319q0 59 -4 110t-11.5 88t-18.5 58t-25 21q-15 0 -26 -21t-18.5 -58t-11 -88t-3.5 -110t3.5 -109.5t11 -87.5t18.5 -58t26 -21q14 0 25 21t18.5 58t11.5 87.5t4 109.5zM246 319q0 -70 -6 -129.5t-19.5 -103t-34.5 -67.5t-51 -24q-31 0 -52 24t-34 67.5t-19 103
t-6 129.5q0 71 6 130t19 102.5t34 67.5t52 24q30 0 51 -24t34.5 -67.5t19.5 -102.5t6 -130zM147 679q-25 13 -49 32t-40 54l10 51q14 -41 41 -70.5t57 -45.5z" />
    <glyph glyph-name="Oacute" unicode="&#xd3;" horiz-adv-x="269" 
d="M194 319q0 59 -4 110t-11.5 88t-18.5 58t-25 21q-15 0 -26 -21t-18.5 -58t-11 -88t-3.5 -110t3.5 -109.5t11 -87.5t18.5 -58t26 -21q14 0 25 21t18.5 58t11.5 87.5t4 109.5zM246 319q0 -70 -6 -129.5t-19.5 -103t-34.5 -67.5t-51 -24q-31 0 -52 24t-34 67.5t-19 103
t-6 129.5q0 71 6 130t19 102.5t34 67.5t52 24q30 0 51 -24t34.5 -67.5t19.5 -102.5t6 -130zM213 765q-16 -35 -40 -54t-48 -32l-20 21q30 16 57.5 45.5t41.5 70.5z" />
    <glyph glyph-name="Ocircumflex" unicode="&#xd4;" horiz-adv-x="269" 
d="M194 319q0 59 -4 110t-11.5 88t-18.5 58t-25 21q-15 0 -26 -21t-18.5 -58t-11 -88t-3.5 -110t3.5 -109.5t11 -87.5t18.5 -58t26 -21q14 0 25 21t18.5 58t11.5 87.5t4 109.5zM246 319q0 -70 -6 -129.5t-19.5 -103t-34.5 -67.5t-51 -24q-31 0 -52 24t-34 67.5t-19 103
t-6 129.5q0 71 6 130t19 102.5t34 67.5t52 24q30 0 51 -24t34.5 -67.5t19.5 -102.5t6 -130zM188 679q-16 12 -29.5 27.5t-24.5 40.5q-10 -25 -24 -40.5t-30 -27.5l-18 20q23 17 42 50.5t30 68.5q11 -35 30 -68t41 -51z" />
    <glyph glyph-name="Otilde" unicode="&#xd5;" horiz-adv-x="269" 
d="M194 319q0 59 -4 110t-11.5 88t-18.5 58t-25 21q-15 0 -26 -21t-18.5 -58t-11 -88t-3.5 -110t3.5 -109.5t11 -87.5t18.5 -58t26 -21q14 0 25 21t18.5 58t11.5 87.5t4 109.5zM246 319q0 -70 -6 -129.5t-19.5 -103t-34.5 -67.5t-51 -24q-31 0 -52 24t-34 67.5t-19 103
t-6 129.5q0 71 6 130t19 102.5t34 67.5t52 24q30 0 51 -24t34.5 -67.5t19.5 -102.5t6 -130zM206 730q-11 -20 -33 -33.5t-42 -14.5l-8 50q-16 -1 -32 -17t-27 -33l4 44q12 18 34.5 32t41.5 15l8 -49q16 1 32 17t27 33z" />
    <glyph glyph-name="Odieresis" unicode="&#xd6;" horiz-adv-x="269" 
d="M194 319q0 59 -4 110t-11.5 88t-18.5 58t-25 21q-15 0 -26 -21t-18.5 -58t-11 -88t-3.5 -110t3.5 -109.5t11 -87.5t18.5 -58t26 -21q14 0 25 21t18.5 58t11.5 87.5t4 109.5zM246 319q0 -70 -6 -129.5t-19.5 -103t-34.5 -67.5t-51 -24q-31 0 -52 24t-34 67.5t-19 103
t-6 129.5q0 71 6 130t19 102.5t34 67.5t52 24q30 0 51 -24t34.5 -67.5t19.5 -102.5t6 -130zM118 724q0 -6 -2.5 -14t-6.5 -14.5t-8.5 -11.5t-8.5 -5t-8.5 5t-8.5 11.5t-6.5 14.5t-2.5 14t2.5 14t6.5 15.5t8.5 12.5t8.5 5t8.5 -5t8.5 -12.5t6.5 -15.5t2.5 -14zM201 724
q0 -6 -3 -14t-7 -14.5t-8.5 -11.5t-7.5 -5q-4 0 -8.5 5t-8.5 11.5t-7 14.5t-3 14t3 14t7 15.5t8.5 12.5t8.5 5q3 0 7.5 -5t8.5 -12.5t7 -15.5t3 -14z" />
    <glyph glyph-name="multiply" unicode="&#xd7;" horiz-adv-x="184" 
d="M134 138l-42 98q0 1 -6.5 -14.5t-14.5 -34.5q-10 -22 -22 -49l-31 21l52 116l-51 116l31 22l42 -100l42 100l31 -21q-14 -32 -25 -58q-10 -22 -17.5 -40t-8.5 -18l51 -116z" />
    <glyph glyph-name="Oslash" unicode="&#xd8;" horiz-adv-x="269" 
d="M196 319q0 44 -2 82.5t-6 71.5l-94 -373q8 -29 18 -44.5t23 -15.5q15 0 26 21t19 58.5t12 88.5t4 111zM177 533q-8 31 -18 48t-24 17q-15 0 -26.5 -21t-19 -58.5t-11.5 -88.5t-4 -111q0 -45 2 -85.5t7 -73.5zM246 319q0 -70 -6 -129.5t-19.5 -103t-34.5 -67.5t-51 -24
q-35 0 -59 33l-11 -43l-24 8l17 67q-19 44 -26.5 110.5t-7.5 148.5q0 71 6 130t19 102.5t34 67.5t52 24q35 0 60 -36l12 47l24 -9l-18 -72q17 -44 25 -108.5t8 -145.5z" />
    <glyph glyph-name="Ugrave" unicode="&#xd9;" horiz-adv-x="255" 
d="M225 107q0 -54 -26.5 -83t-71.5 -29t-71 29t-26 83v531h50v-528q0 -35 13 -53t35 -18t34.5 18t12.5 53v528h50v-531zM140 679q-25 13 -49 32t-40 54l10 51q14 -41 41 -70.5t57 -45.5z" />
    <glyph glyph-name="Uacute" unicode="&#xda;" horiz-adv-x="255" 
d="M225 107q0 -54 -26.5 -83t-71.5 -29t-71 29t-26 83v531h50v-528q0 -35 13 -53t35 -18t34.5 18t12.5 53v528h50v-531zM205 765q-16 -35 -40 -54t-48 -32l-20 21q30 16 57.5 45.5t41.5 70.5z" />
    <glyph glyph-name="Ucircumflex" unicode="&#xdb;" horiz-adv-x="255" 
d="M225 107q0 -54 -26.5 -83t-71.5 -29t-71 29t-26 83v531h50v-528q0 -35 13 -53t35 -18t34.5 18t12.5 53v528h50v-531zM181 679q-16 12 -29.5 27.5t-24.5 40.5q-10 -25 -24 -40.5t-30 -27.5l-18 20q23 17 42 50.5t30 68.5q11 -35 30 -68t41 -51z" />
    <glyph glyph-name="Udieresis" unicode="&#xdc;" horiz-adv-x="255" 
d="M225 107q0 -54 -26.5 -83t-71.5 -29t-71 29t-26 83v531h50v-528q0 -35 13 -53t35 -18t34.5 18t12.5 53v528h50v-531zM113 724q0 -6 -2.5 -14t-6.5 -14.5t-8.5 -11.5t-8.5 -5t-8.5 5t-8.5 11.5t-6.5 14.5t-2.5 14t2.5 14t6.5 15.5t8.5 12.5t8.5 5t8.5 -5t8.5 -12.5
t6.5 -15.5t2.5 -14zM196 724q0 -6 -3 -14t-7 -14.5t-8.5 -11.5t-7.5 -5q-4 0 -8.5 5t-8.5 11.5t-7 14.5t-3 14t3 14t7 15.5t8.5 12.5t8.5 5q3 0 7.5 -5t8.5 -12.5t7 -15.5t3 -14z" />
    <glyph glyph-name="Yacute" unicode="&#xdd;" horiz-adv-x="225" 
d="M138 279v-279h-51v278l-78 360h49l38 -184q5 -21 9 -45t8 -47h2q4 23 7.5 46.5t8.5 45.5l39 184h47zM194 765q-16 -35 -40 -54t-48 -32l-20 21q30 16 57.5 45.5t41.5 70.5z" />
    <glyph glyph-name="Thorn" unicode="&#xde;" horiz-adv-x="211" 
d="M151 395q0 56 -13.5 91t-36.5 35h-21v-251h22q22 0 35.5 34.5t13.5 90.5zM201 395q0 -36 -6.5 -67t-19 -54t-30 -36t-38.5 -13h-27v-225h-50v639h50v-75h26q22 0 39.5 -13t30 -36t19 -54t6.5 -66z" />
    <glyph glyph-name="germandbls" unicode="&#xdf;" horiz-adv-x="254" 
d="M240 100q0 -48 -23 -76.5t-58 -28.5q-22 0 -34.5 7t-18.5 15v50q5 -10 15.5 -19t27.5 -9q19 0 30.5 15.5t11.5 41.5q0 25 -9 52.5t-28 64.5q-14 27 -23 47.5t-14.5 37.5t-7.5 32t-2 33q0 36 13.5 58t33.5 30q3 14 3 28q0 23 -3 44.5t-8 38.5t-12.5 27.5t-16.5 10.5
q-21 0 -30.5 -39t-9.5 -100v-461h-47v465q0 80 20 129t67 49q22 0 38.5 -13t27 -35.5t16 -52t5.5 -62.5q0 -14 -1.5 -30t-4.5 -30q-21 0 -32.5 -15t-11.5 -38q0 -27 7.5 -50t24.5 -53t27.5 -52.5t16.5 -41t8 -35.5t2 -35z" />
    <glyph glyph-name="agrave" unicode="&#xe0;" horiz-adv-x="212" 
d="M108 499q-21 11 -41.5 27.5t-34.5 45.5l9 43q12 -34 34.5 -59t48.5 -39zM126 228l-19 -3q-16 -2 -31 -29.5t-15 -76.5q0 -38 10 -60.5t23 -22.5q15 0 23.5 24.5t8.5 59.5v108zM184 -6q-14 5 -25.5 16.5t-15.5 30.5q-5 -20 -19.5 -33t-34.5 -13q-32 0 -52 31.5t-20 92.5
q0 67 24 105.5t62 42.5l23 3v47q0 50 -12.5 74.5t-32.5 24.5q-13 0 -24.5 -9.5t-16.5 -20.5l-3 47q6 10 19 17.5t32 7.5q42 0 64 -37t22 -105v-214q0 -37 10.5 -51.5t22.5 -20.5z" />
    <glyph glyph-name="aacute" unicode="&#xe1;" horiz-adv-x="212" 
d="M148 572q-14 -29 -34.5 -45.5t-40.5 -27.5l-17 18q26 14 49 39t35 59zM126 228l-19 -3q-16 -2 -31 -29.5t-15 -76.5q0 -38 10 -60.5t23 -22.5q15 0 23.5 24.5t8.5 59.5v108zM184 -6q-14 5 -25.5 16.5t-15.5 30.5q-5 -20 -19.5 -33t-34.5 -13q-32 0 -52 31.5t-20 92.5
q0 67 24 105.5t62 42.5l23 3v47q0 50 -12.5 74.5t-32.5 24.5q-13 0 -24.5 -9.5t-16.5 -20.5l-3 47q6 10 19 17.5t32 7.5q42 0 64 -37t22 -105v-214q0 -37 10.5 -51.5t22.5 -20.5z" />
    <glyph glyph-name="acircumflex" unicode="&#xe2;" horiz-adv-x="212" 
d="M143 499q-14 11 -25.5 24t-20.5 34q-8 -21 -20 -34t-26 -24l-15 17q19 15 35 43.5t26 57.5q10 -29 26 -57t34 -44zM126 228l-19 -3q-16 -2 -31 -29.5t-15 -76.5q0 -38 10 -60.5t23 -22.5q15 0 23.5 24.5t8.5 59.5v108zM184 -6q-14 5 -25.5 16.5t-15.5 30.5
q-5 -20 -19.5 -33t-34.5 -13q-32 0 -52 31.5t-20 92.5q0 67 24 105.5t62 42.5l23 3v47q0 50 -12.5 74.5t-32.5 24.5q-13 0 -24.5 -9.5t-16.5 -20.5l-3 47q6 10 19 17.5t32 7.5q42 0 64 -37t22 -105v-214q0 -37 10.5 -51.5t22.5 -20.5z" />
    <glyph glyph-name="atilde" unicode="&#xe3;" horiz-adv-x="212" 
d="M159 542q-9 -17 -27.5 -28t-35.5 -12l-7 42q-14 -1 -27.5 -14.5t-22.5 -27.5l3 37q11 15 29.5 27t35.5 13l6 -42q14 1 28 14.5t23 28.5zM126 228l-19 -3q-16 -2 -31 -29.5t-15 -76.5q0 -38 10 -60.5t23 -22.5q15 0 23.5 24.5t8.5 59.5v108zM184 -6q-14 5 -25.5 16.5
t-15.5 30.5q-5 -20 -19.5 -33t-34.5 -13q-32 0 -52 31.5t-20 92.5q0 67 24 105.5t62 42.5l23 3v47q0 50 -12.5 74.5t-32.5 24.5q-13 0 -24.5 -9.5t-16.5 -20.5l-3 47q6 10 19 17.5t32 7.5q42 0 64 -37t22 -105v-214q0 -37 10.5 -51.5t22.5 -20.5z" />
    <glyph glyph-name="adieresis" unicode="&#xe4;" horiz-adv-x="212" 
d="M82 537q0 -10 -7.5 -24t-14.5 -14q-6 0 -14 14t-8 24q0 5 2.5 12t5.5 13t7 10.5t7 4.5q7 0 14.5 -14.5t7.5 -25.5zM153 537q0 -10 -8 -24t-14 -14q-7 0 -15 14t-8 24q0 11 8 25.5t15 14.5q3 0 7 -4.5t7 -10.5t5.5 -13t2.5 -12zM126 228l-19 -3q-16 -2 -31 -29.5
t-15 -76.5q0 -38 10 -60.5t23 -22.5q15 0 23.5 24.5t8.5 59.5v108zM184 -6q-14 5 -25.5 16.5t-15.5 30.5q-5 -20 -19.5 -33t-34.5 -13q-32 0 -52 31.5t-20 92.5q0 67 24 105.5t62 42.5l23 3v47q0 50 -12.5 74.5t-32.5 24.5q-13 0 -24.5 -9.5t-16.5 -20.5l-3 47q6 10 19 17.5
t32 7.5q42 0 64 -37t22 -105v-214q0 -37 10.5 -51.5t22.5 -20.5z" />
    <glyph glyph-name="aring" unicode="&#xe5;" horiz-adv-x="212" 
d="M119 557q0 20 -6.5 34t-15.5 14q-10 0 -16.5 -14t-6.5 -34t6.5 -33t16.5 -13q9 0 15.5 13t6.5 33zM144 557q0 -28 -13 -48t-34 -20q-22 0 -35 20t-13 48q0 29 13 49t35 20q21 0 34 -20t13 -49zM126 228l-19 -3q-16 -2 -31 -29.5t-15 -76.5q0 -38 10 -60.5t23 -22.5
q15 0 23.5 24.5t8.5 59.5v108zM184 -6q-14 5 -25.5 16.5t-15.5 30.5q-5 -20 -19.5 -33t-34.5 -13q-32 0 -52 31.5t-20 92.5q0 67 24 105.5t62 42.5l23 3v47q0 50 -12.5 74.5t-32.5 24.5q-13 0 -24.5 -9.5t-16.5 -20.5l-3 47q6 10 19 17.5t32 7.5q42 0 64 -37t22 -105v-214
q0 -37 10.5 -51.5t22.5 -20.5z" />
    <glyph glyph-name="ae" unicode="&#xe6;" horiz-adv-x="315" 
d="M126 221l-19 -2q-17 -2 -31.5 -28.5t-14.5 -71.5q0 -38 10 -60.5t23 -22.5q15 0 23.5 24.5t8.5 59.5v101zM253 292q0 23 -2 45.5t-6.5 40.5t-11.5 29.5t-16 11.5q-10 0 -18 -12.5t-13 -34t-8 -49.5t-3 -59h77q1 3 1 14v14zM298 292v-9t-0.5 -13t-1 -13t-0.5 -9l-25 -26
h-97q0 -37 3.5 -70.5t11 -59t19 -41t27.5 -15.5q14 0 25.5 7.5t18.5 19.5l-2 -49q-7 -8 -19.5 -13.5t-30.5 -5.5q-26 0 -46 19.5t-27 57.5q-5 -38 -22.5 -57.5t-40.5 -19.5q-34 0 -54 31.5t-20 92.5q0 64 23 100.5t62 41.5l24 2v55q0 49 -12.5 73.5t-32.5 24.5
q-14 0 -25 -9.5t-16 -20.5l-3 47q6 10 19 17.5t32 7.5q23 0 42 -18t24 -53q7 35 25 53t38 18q22 0 37.5 -13.5t25 -36.5t14 -53t4.5 -63z" />
    <glyph glyph-name="ccedilla" unicode="&#xe7;" horiz-adv-x="177" 
d="M162 391q-5 9 -14 16.5t-23 7.5t-24.5 -14t-17.5 -39t-10.5 -59.5t-3.5 -76.5q0 -41 3.5 -75.5t10.5 -59.5t17.5 -39t25.5 -14q26 0 36 22l-2 -49q-5 -6 -15.5 -11t-24.5 -5l-2 -17q11 -3 20.5 -18.5t9.5 -46.5q0 -37 -14.5 -53t-28.5 -16t-21 10l2 28q6 -13 14 -13
q9 0 15.5 11t6.5 33q0 44 -19 44q-2 0 -3.5 -0.5t-3.5 -1.5l3 42q-39 11 -59 71.5t-20 157.5q0 109 24 170.5t73 61.5q19 0 30.5 -7t15.5 -13z" />
    <glyph glyph-name="egrave" unicode="&#xe8;" horiz-adv-x="208" 
d="M127 499q-22 11 -42 27.5t-34 45.5l8 43q13 -34 35.5 -59t48.5 -39zM147 292q0 23 -2 45.5t-6.5 40.5t-11.5 29.5t-16 11.5q-10 0 -18 -12.5t-13.5 -34t-8.5 -49.5t-4 -59h78q1 3 1.5 14t0.5 14zM192 292v-9t-0.5 -13t-1 -13t-0.5 -9l-26 -26h-97q-1 -37 2.5 -70.5
t11.5 -59t20 -41t28 -15.5q14 0 25.5 7.5t17.5 19.5l-2 -49q-7 -8 -19.5 -13.5t-29.5 -5.5q-26 0 -45 16.5t-31.5 47t-18.5 73.5t-6 95q0 51 5.5 93.5t16.5 73t28 47.5t41 17q21 0 36.5 -13.5t25.5 -36.5t14.5 -53t4.5 -63z" />
    <glyph glyph-name="eacute" unicode="&#xe9;" horiz-adv-x="208" 
d="M174 572q-13 -29 -33.5 -45.5t-40.5 -27.5l-17 18q26 14 49 39t35 59zM147 292q0 23 -2 45.5t-6.5 40.5t-11.5 29.5t-16 11.5q-10 0 -18 -12.5t-13.5 -34t-8.5 -49.5t-4 -59h78q1 3 1.5 14t0.5 14zM192 292v-9t-0.5 -13t-1 -13t-0.5 -9l-26 -26h-97q-1 -37 2.5 -70.5
t11.5 -59t20 -41t28 -15.5q14 0 25.5 7.5t17.5 19.5l-2 -49q-7 -8 -19.5 -13.5t-29.5 -5.5q-26 0 -45 16.5t-31.5 47t-18.5 73.5t-6 95q0 51 5.5 93.5t16.5 73t28 47.5t41 17q21 0 36.5 -13.5t25.5 -36.5t14.5 -53t4.5 -63z" />
    <glyph glyph-name="ecircumflex" unicode="&#xea;" horiz-adv-x="208" 
d="M157 499q-14 11 -25.5 24t-20.5 34q-8 -21 -20 -34t-26 -24l-15 17q19 15 35 43.5t26 57.5q10 -29 26 -57t35 -44zM147 292q0 23 -2 45.5t-6.5 40.5t-11.5 29.5t-16 11.5q-10 0 -18 -12.5t-13.5 -34t-8.5 -49.5t-4 -59h78q1 3 1.5 14t0.5 14zM192 292v-9t-0.5 -13t-1 -13
t-0.5 -9l-26 -26h-97q-1 -37 2.5 -70.5t11.5 -59t20 -41t28 -15.5q14 0 25.5 7.5t17.5 19.5l-2 -49q-7 -8 -19.5 -13.5t-29.5 -5.5q-26 0 -45 16.5t-31.5 47t-18.5 73.5t-6 95q0 51 5.5 93.5t16.5 73t28 47.5t41 17q21 0 36.5 -13.5t25.5 -36.5t14.5 -53t4.5 -63z" />
    <glyph glyph-name="edieresis" unicode="&#xeb;" horiz-adv-x="208" 
d="M96 537q0 -10 -7.5 -24t-14.5 -14q-6 0 -14 14t-8 24q0 5 2.5 12t5.5 13t7 10.5t7 4.5q7 0 14.5 -14.5t7.5 -25.5zM167 537q0 -5 -2.5 -11.5t-6 -12.5t-7 -10t-6.5 -4q-7 0 -15 14t-8 24q0 11 8 25.5t15 14.5q3 0 6.5 -4.5t7 -10.5t6 -13t2.5 -12zM147 292q0 23 -2 45.5
t-6.5 40.5t-11.5 29.5t-16 11.5q-10 0 -18 -12.5t-13.5 -34t-8.5 -49.5t-4 -59h78q1 3 1.5 14t0.5 14zM192 292v-9t-0.5 -13t-1 -13t-0.5 -9l-26 -26h-97q-1 -37 2.5 -70.5t11.5 -59t20 -41t28 -15.5q14 0 25.5 7.5t17.5 19.5l-2 -49q-7 -8 -19.5 -13.5t-29.5 -5.5
q-26 0 -45 16.5t-31.5 47t-18.5 73.5t-6 95q0 51 5.5 93.5t16.5 73t28 47.5t41 17q21 0 36.5 -13.5t25.5 -36.5t14.5 -53t4.5 -63z" />
    <glyph glyph-name="igrave" unicode="&#xec;" horiz-adv-x="119" 
d="M74 499q-21 11 -41.5 27.5t-34.5 45.5l9 43q12 -34 34.5 -59t48.5 -39zM35 0v453h48v-453h-48z" />
    <glyph glyph-name="iacute" unicode="&#xed;" horiz-adv-x="119" 
d="M118 572q-14 -29 -34.5 -45.5t-40.5 -27.5l-17 18q26 14 49 39t35 59zM35 0v453h48v-453h-48z" />
    <glyph glyph-name="icircumflex" unicode="&#xee;" horiz-adv-x="119" 
d="M104 496q-14 11 -25.5 24t-20.5 34q-8 -21 -20 -34t-26 -24l-15 17q19 15 35 43.5t26 57.5q10 -29 26 -57t34 -44zM35 0v453h48v-453h-48z" />
    <glyph glyph-name="idieresis" unicode="&#xef;" horiz-adv-x="119" 
d="M46 537q0 -10 -8 -24t-14 -14q-7 0 -15 14t-8 24q0 11 8 25.5t15 14.5q3 0 7 -4.5t7 -10.5t5.5 -13t2.5 -12zM116 537q0 -10 -8 -24t-14 -14t-14.5 14t-8.5 24q0 5 2.5 12t6 13t7.5 10.5t7 4.5t7 -4.5t7 -10.5t5.5 -13t2.5 -12zM35 0v453h48v-453h-48z" />
    <glyph glyph-name="eth" unicode="&#xf0;" horiz-adv-x="228" 
d="M156 206q0 35 -4 80t-12 93q-10 -5 -19.5 -11.5t-17.5 -15.5q-17 -23 -26 -62.5t-9 -93.5q0 -73 12.5 -115t30.5 -42q19 0 32 41.5t13 125.5zM205 206q0 -105 -24.5 -158t-69.5 -53q-22 0 -39.5 14.5t-29 41t-17.5 63.5t-6 82q0 72 16.5 121.5t39.5 73.5q10 10 25 19.5
t31 14.5l-20 107l-46 -9l-7 38l46 10l-13 67h49l11 -58l36 8l7 -38l-36 -8l34 -179q7 -42 10 -85.5t3 -71.5z" />
    <glyph glyph-name="ntilde" unicode="&#xf1;" horiz-adv-x="225" 
d="M171 542q-9 -17 -28 -28t-36 -12l-7 42q-14 -1 -27.5 -14.5t-22.5 -27.5l3 37q11 15 30 27t35 13l7 -42q14 1 27.5 14.5t22.5 28.5zM150 0v342q0 73 -36 73q-16 0 -27.5 -19.5t-11.5 -54.5v-341h-48v453h44v-35q4 14 17 27t36 13q38 0 56.5 -30t18.5 -80v-348h-49z" />
    <glyph glyph-name="ograve" unicode="&#xf2;" horiz-adv-x="228" 
d="M128 499q-21 11 -41.5 27.5t-33.5 45.5l8 43q12 -34 34.5 -59t48.5 -39zM159 226q0 41 -3 76t-9 60t-14 39t-19 14q-10 0 -18.5 -14t-14 -39t-8.5 -60t-3 -76t3 -75.5t8.5 -59.5t14 -39t18.5 -14q11 0 19 14t14 39t9 59.5t3 75.5zM209 226q0 -51 -5.5 -93t-17 -73
t-29.5 -48t-43 -17t-43 17t-29 48t-16.5 73t-5.5 93t5.5 93.5t16.5 73.5t29 48t43 17t43 -17t29.5 -48t17 -73.5t5.5 -93.5z" />
    <glyph glyph-name="oacute" unicode="&#xf3;" horiz-adv-x="228" 
d="M175 572q-14 -29 -34.5 -45.5t-40.5 -27.5l-17 18q26 14 49 39t35 59zM159 226q0 41 -3 76t-9 60t-14 39t-19 14q-10 0 -18.5 -14t-14 -39t-8.5 -60t-3 -76t3 -75.5t8.5 -59.5t14 -39t18.5 -14q11 0 19 14t14 39t9 59.5t3 75.5zM209 226q0 -51 -5.5 -93t-17 -73
t-29.5 -48t-43 -17t-43 17t-29 48t-16.5 73t-5.5 93t5.5 93.5t16.5 73.5t29 48t43 17t43 -17t29.5 -48t17 -73.5t5.5 -93.5z" />
    <glyph glyph-name="ocircumflex" unicode="&#xf4;" horiz-adv-x="228" 
d="M160 499q-14 11 -25.5 24t-20.5 34q-8 -21 -20 -34t-25 -24l-16 17q20 15 36 43.5t25 57.5q10 -29 26 -57t35 -44zM159 226q0 41 -3 76t-9 60t-14 39t-19 14q-10 0 -18.5 -14t-14 -39t-8.5 -60t-3 -76t3 -75.5t8.5 -59.5t14 -39t18.5 -14q11 0 19 14t14 39t9 59.5t3 75.5
zM209 226q0 -51 -5.5 -93t-17 -73t-29.5 -48t-43 -17t-43 17t-29 48t-16.5 73t-5.5 93t5.5 93.5t16.5 73.5t29 48t43 17t43 -17t29.5 -48t17 -73.5t5.5 -93.5z" />
    <glyph glyph-name="otilde" unicode="&#xf5;" horiz-adv-x="228" 
d="M173 542q-9 -17 -28 -28t-36 -12l-6 42q-14 -1 -28 -14.5t-23 -27.5l4 37q10 15 29 27t35 13l7 -42q14 1 28 14.5t22 28.5zM159 226q0 41 -3 76t-9 60t-14 39t-19 14q-10 0 -18.5 -14t-14 -39t-8.5 -60t-3 -76t3 -75.5t8.5 -59.5t14 -39t18.5 -14q11 0 19 14t14 39
t9 59.5t3 75.5zM209 226q0 -51 -5.5 -93t-17 -73t-29.5 -48t-43 -17t-43 17t-29 48t-16.5 73t-5.5 93t5.5 93.5t16.5 73.5t29 48t43 17t43 -17t29.5 -48t17 -73.5t5.5 -93.5z" />
    <glyph glyph-name="odieresis" unicode="&#xf6;" horiz-adv-x="228" 
d="M101 537q0 -10 -7.5 -24t-14.5 -14q-6 0 -14 14t-8 24q0 5 2.5 12t5.5 13t7 10.5t7 4.5q7 0 14.5 -14.5t7.5 -25.5zM172 537q0 -5 -2.5 -11.5t-6 -12.5t-7 -10t-6.5 -4q-7 0 -15 14t-8 24q0 11 8 25.5t15 14.5q3 0 6.5 -4.5t7 -10.5t6 -13t2.5 -12zM159 226q0 41 -3 76
t-9 60t-14 39t-19 14q-10 0 -18.5 -14t-14 -39t-8.5 -60t-3 -76t3 -75.5t8.5 -59.5t14 -39t18.5 -14q11 0 19 14t14 39t9 59.5t3 75.5zM209 226q0 -51 -5.5 -93t-17 -73t-29.5 -48t-43 -17t-43 17t-29 48t-16.5 73t-5.5 93t5.5 93.5t16.5 73.5t29 48t43 17t43 -17t29.5 -48
t17 -73.5t5.5 -93.5z" />
    <glyph glyph-name="divide" unicode="&#xf7;" horiz-adv-x="200" 
d="M127 166q0 -6 -3 -14t-7 -15t-8.5 -12t-8.5 -5t-8.5 5t-8.5 12t-6.5 15t-2.5 14t2.5 14t6.5 15.5t8.5 12.5t8.5 5t8.5 -5t8.5 -12.5t7 -15.5t3 -14zM20 257v40h161v-40h-161zM127 388q0 -6 -3 -14t-7 -15t-8.5 -12t-8.5 -5t-8.5 5t-8.5 12t-6.5 15t-2.5 14t2.5 14t6.5 15
t8.5 12t8.5 5t8.5 -5t8.5 -12t7 -15t3 -14z" />
    <glyph glyph-name="oslash" unicode="&#xf8;" horiz-adv-x="228" 
d="M161 226q0 58 -6 100l-73 -247q13 -44 32 -44q11 0 19.5 14t14.5 39.5t9.5 60.5t3.5 77zM145 377q-13 41 -31 41q-11 0 -19.5 -14t-14.5 -39.5t-9.5 -61t-3.5 -77.5q0 -27 1.5 -51.5t3.5 -45.5zM209 226q0 -51 -5.5 -93t-17 -73t-29.5 -48t-43 -17q-28 0 -50 24l-10 -36
l-22 8l16 54q-15 32 -21.5 78t-6.5 103q0 51 5.5 93.5t16.5 73.5t29 48t43 17q28 0 48 -22l10 34l23 -8l-16 -52q16 -31 23 -78t7 -106z" />
    <glyph glyph-name="ugrave" unicode="&#xf9;" horiz-adv-x="225" 
d="M119 499q-21 11 -41 27.5t-34 45.5l8 43q12 -34 35 -59t49 -39zM154 0v32q-4 -13 -17 -25t-36 -12q-38 0 -56 30t-18 80v348h48v-342q0 -73 36 -73q16 0 27.5 19.5t11.5 54.5v341h49v-453h-45z" />
    <glyph glyph-name="uacute" unicode="&#xfa;" horiz-adv-x="225" 
d="M182 572q-14 -29 -34.5 -45.5t-40.5 -27.5l-17 18q26 14 49 39t35 59zM154 0v32q-4 -13 -17 -25t-36 -12q-38 0 -56 30t-18 80v348h48v-342q0 -73 36 -73q16 0 27.5 19.5t11.5 54.5v341h49v-453h-45z" />
    <glyph glyph-name="ucircumflex" unicode="&#xfb;" horiz-adv-x="225" 
d="M159 499q-14 11 -25.5 24t-20.5 34q-8 -21 -20 -34t-26 -24l-15 17q19 15 35 43.5t26 57.5q10 -29 26 -57t34 -44zM154 0v32q-4 -13 -17 -25t-36 -12q-38 0 -56 30t-18 80v348h48v-342q0 -73 36 -73q16 0 27.5 19.5t11.5 54.5v341h49v-453h-45z" />
    <glyph glyph-name="udieresis" unicode="&#xfc;" horiz-adv-x="225" 
d="M99 537q0 -10 -7.5 -24t-14.5 -14q-6 0 -14 14t-8 24q0 5 2.5 12t5.5 13t7 10.5t7 4.5q7 0 14.5 -14.5t7.5 -25.5zM170 537q0 -5 -2.5 -11.5t-6 -12.5t-7 -10t-6.5 -4q-7 0 -15 14t-8 24q0 11 8 25.5t15 14.5q3 0 6.5 -4.5t7 -10.5t6 -13t2.5 -12zM154 0v32
q-4 -13 -17 -25t-36 -12q-38 0 -56 30t-18 80v348h48v-342q0 -73 36 -73q16 0 27.5 19.5t11.5 54.5v341h49v-453h-45z" />
    <glyph glyph-name="yacute" unicode="&#xfd;" horiz-adv-x="218" 
d="M178 572q-13 -29 -33.5 -45.5t-40.5 -27.5l-17 18q26 14 49 39t35 59zM133 54q-10 -55 -20.5 -92.5t-22.5 -63t-26 -43t-31 -31.5l-22 34q12 11 22 24.5t19.5 34.5t18.5 52.5t17 77.5l-76 406h45l37 -203q5 -24 8.5 -50t6.5 -52h2q4 26 7.5 51.5t8.5 50.5l35 203h44z" />
    <glyph glyph-name="thorn" unicode="&#xfe;" horiz-adv-x="230" 
d="M159 228q0 41 -3 75.5t-9.5 59t-15.5 38.5t-21 14q-11 0 -19 -11t-13 -22v-313q4 -13 13 -22t19 -9q12 0 21 14t15.5 39.5t9.5 60t3 76.5zM209 228q0 -51 -5 -93.5t-16.5 -73.5t-29.5 -48.5t-44 -17.5q-22 0 -36 21v-191h-48v813h48v-201q17 21 42 21q21 0 38 -16.5
t28 -47t17 -73t6 -93.5z" />
    <glyph glyph-name="ydieresis" unicode="&#xff;" horiz-adv-x="218" 
d="M98 534q0 -11 -8 -24.5t-14 -13.5q-7 0 -14.5 13.5t-7.5 24.5t7.5 25.5t14.5 14.5q3 0 7 -4.5t7 -10.5t5.5 -13t2.5 -12zM168 534q0 -11 -8 -24.5t-14 -13.5t-14.5 13.5t-8.5 24.5q0 5 2.5 12t6 13t7.5 10.5t7 4.5t7 -4.5t7 -10.5t5.5 -13t2.5 -12zM133 54
q-10 -55 -20.5 -92.5t-22.5 -63t-26 -43t-31 -31.5l-22 34q12 11 22 24.5t19.5 34.5t18.5 52.5t17 77.5l-76 406h45l37 -203q5 -24 8.5 -50t6.5 -52h2q4 26 7.5 51.5t8.5 50.5l35 203h44z" />
    <glyph glyph-name="dotlessi" unicode="&#x131;" horiz-adv-x="119" 
d="M35 0v453h48v-453h-48z" />
    <glyph glyph-name="Lslash" unicode="&#x141;" horiz-adv-x="193" 
d="M33 0v255l-21 -14l-18 34l39 26v337h51v-304l35 23v-46l-35 -23v-243h106v-45h-157z" />
    <glyph glyph-name="lslash" unicode="&#x142;" horiz-adv-x="131" 
d="M87 288v-185q0 -31 7 -48t23 -27l-23 -35q-25 11 -40.5 37t-15.5 71v155l-24 -15l-17 34l41 27v336h49v-304l35 23v-46z" />
    <glyph glyph-name="OE" unicode="&#x152;" horiz-adv-x="344" 
d="M182 556q-6 17 -17.5 28.5t-25.5 11.5q-15 0 -27 -21t-20 -58t-12 -88t-4 -110t4 -109.5t12 -87.5t20 -58t27 -21q16 0 26.5 11t16.5 28v474zM189 0v25q-21 -30 -54 -30q-31 0 -52 24t-34 67.5t-19 103t-6 129.5q0 71 6 130t19 102.5t34 67.5t52 24q35 0 54 -30v25h140
v-45h-96v-249h81v-45h-81v-254h106v-45h-150z" />
    <glyph glyph-name="oe" unicode="&#x153;" horiz-adv-x="347" 
d="M159 226q0 41 -3 76t-9 60t-14 39t-19 14q-10 0 -18.5 -14t-14 -39t-8.5 -60t-3 -76t3 -75.5t8.5 -59.5t14 -39t18.5 -14q11 0 19 14t14 39t9 59.5t3 75.5zM285 292q0 23 -2 45.5t-6.5 40.5t-11 29.5t-16.5 11.5t-18 -12.5t-13.5 -34t-8.5 -49.5t-3 -59h77q1 3 1.5 14
t0.5 14zM330 292v-9t-0.5 -13t-1 -13t-0.5 -9l-26 -26h-96q-1 -37 2.5 -70.5t11 -59t19.5 -41t28 -15.5q14 0 25.5 7.5t17.5 19.5l-2 -49q-6 -8 -18.5 -13.5t-30.5 -5.5q-29 0 -48.5 25t-27.5 61q-6 -36 -24.5 -61t-44.5 -25q-25 0 -43 17t-29 48t-16.5 73t-5.5 93t5.5 93.5
t16.5 73.5t29 48t43 17q26 0 45 -25t24 -60q5 35 23 60t43 25q21 0 36.5 -13.5t25.5 -36.5t14.5 -53t4.5 -63z" />
    <glyph glyph-name="Scaron" unicode="&#x160;" horiz-adv-x="187" 
d="M171 133q0 -72 -26.5 -105t-67.5 -33q-23 0 -38 9t-22 20l-3 64q5 -17 19.5 -31t34.5 -14q22 0 37.5 19.5t15.5 67.5q0 20 -3 40t-9 42t-15 48t-22 57q-15 38 -25.5 67t-17 52t-9 43t-2.5 40q0 61 24 92.5t62 31.5q19 0 31 -7t17 -15l-4 -50q-4 9 -13.5 17t-22.5 8
q-20 0 -32 -18.5t-12 -55.5q0 -29 10.5 -70t32.5 -91q18 -40 29.5 -71t18 -58t9.5 -50.5t3 -48.5zM163 786q-22 -17 -41 -50t-30 -68q-11 35 -30 68t-42 50l18 21q16 -12 30 -27.5t24 -40.5q11 25 24.5 40.5t29.5 27.5z" />
    <glyph glyph-name="scaron" unicode="&#x161;" horiz-adv-x="169" 
d="M145 590q-19 -14 -35 -42.5t-26 -57.5q-10 29 -25.5 57.5t-35.5 42.5l15 18q14 -11 26 -24t20 -34q9 21 20.5 34t25.5 24zM152 100q0 -48 -23 -76.5t-59 -28.5q-22 0 -34.5 8t-17.5 16l-4 57q6 -14 18 -25.5t29 -11.5q20 0 31 15.5t11 41.5t-8.5 52.5t-27.5 63.5
q-14 27 -23.5 47.5t-15 38t-7.5 33t-2 33.5q0 46 21.5 70t53.5 24q17 0 27 -6.5t13 -11.5l-3 -47q-4 8 -11.5 14.5t-19.5 6.5q-15 0 -24.5 -13t-9.5 -33q0 -26 7 -48.5t25 -55.5q16 -29 26.5 -51.5t16.5 -41t8.5 -36t2.5 -35.5z" />
    <glyph glyph-name="Ydieresis" unicode="&#x178;" horiz-adv-x="225" 
d="M138 279v-279h-51v278l-78 360h49l38 -184q5 -21 9 -45t8 -47h2q4 23 7.5 46.5t8.5 45.5l39 184h47zM98 723q0 -6 -2.5 -14t-6.5 -14.5t-8.5 -11.5t-8.5 -5t-8.5 5t-8.5 11.5t-6.5 14.5t-2.5 14t2.5 14t6.5 15.5t8.5 12.5t8.5 5t8.5 -5t8.5 -12.5t6.5 -15.5t2.5 -14z
M181 723q0 -6 -3 -14t-7 -14.5t-8.5 -11.5t-7.5 -5q-4 0 -8.5 5t-8.5 11.5t-7 14.5t-3 14t3 14t7 15.5t8.5 12.5t8.5 5q3 0 7.5 -5t8.5 -12.5t7 -15.5t3 -14z" />
    <glyph glyph-name="Zcaron" unicode="&#x17d;" horiz-adv-x="193" 
d="M10 0v10l72 389q10 47 19.5 97t18.5 96l-1 1h-91v45h146v-10l-73 -390q-9 -48 -18.5 -98.5t-18.5 -93.5l1 -1h112v-45h-167zM171 786q-22 -17 -41 -50t-30 -68q-11 35 -30 68t-42 50l18 21q16 -12 30 -27.5t24 -40.5q11 25 24.5 40.5t29.5 27.5z" />
    <glyph glyph-name="zcaron" unicode="&#x17e;" horiz-adv-x="172" 
d="M151 590q-18 -14 -34 -42.5t-26 -57.5q-10 29 -26 57.5t-35 42.5l15 18q14 -11 26 -24t20 -34q9 21 20.5 34t25.5 24zM9 0v8l57 265q7 35 14.5 70t14.5 65l-1 2h-68v43h124v-8l-57 -270q-7 -33 -14.5 -66.5t-14.5 -63.5l1 -2h88v-43h-144z" />
    <glyph glyph-name="florin" unicode="&#x192;" horiz-adv-x="215" 
d="M202 596q-8 4 -17 4q-26 0 -43 -25t-24 -93l-3 -29h59l-5 -33h-56l-39 -412q-7 -75 -29 -119t-57 -64l-31 31q31 18 47 54.5t22 102.5l38 407h-33l3 33h33l3 26q8 90 35 127t80 37q7 0 12.5 -1t10.5 -3z" />
    <glyph glyph-name="circumflex" unicode="&#x2c6;" 
d="M148 479q-16 12 -29.5 27.5t-24.5 40.5q-10 -25 -24 -40.5t-30 -27.5l-18 20q23 17 42 50.5t30 68.5q11 -35 30 -68t41 -51z" />
    <glyph glyph-name="caron" unicode="&#x2c7;" 
d="M165 586q-22 -17 -41 -50t-30 -68q-11 35 -30 68t-42 50l18 21q16 -12 30 -27.5t24 -40.5q11 25 24.5 40.5t29.5 27.5z" />
    <glyph glyph-name="breve" unicode="&#x2d8;" 
d="M149 508q-6 -9 -21 -19t-34 -10q-20 0 -34.5 10t-21.5 19l14 24q6 -7 17.5 -13.5t24.5 -6.5q12 0 23.5 6.5t17.5 13.5z" />
    <glyph glyph-name="dotaccent" unicode="&#x2d9;" 
d="M121 526q0 -6 -2.5 -14.5t-6.5 -15.5t-9 -12t-9 -5t-9 5t-9 12t-7 15.5t-3 14.5t3 14t7 15.5t9 12.5t9 5t9 -5t9 -12.5t6.5 -15.5t2.5 -14z" />
    <glyph glyph-name="ring" unicode="&#x2da;" 
d="M121 547q0 23 -8 39.5t-19 16.5t-19 -16.5t-8 -39.5t8 -38.5t19 -15.5t19 15.5t8 38.5zM150 547q0 -32 -15.5 -56t-40.5 -24t-40.5 24t-15.5 56q0 34 15.5 57.5t40.5 23.5t40.5 -23.5t15.5 -57.5z" />
    <glyph glyph-name="ogonek" unicode="&#x2db;" 
d="M129 -160q-4 -6 -12 -11t-20 -5q-20 0 -33.5 17.5t-13.5 46.5q0 40 17.5 70t32.5 42h33q-23 -19 -38.5 -48t-15.5 -61q0 -22 7 -32t18 -10q10 0 16.5 5t12.5 14z" />
    <glyph glyph-name="tilde" unicode="&#x2dc;" 
d="M163 530q-11 -20 -33 -33.5t-42 -14.5l-8 50q-16 -1 -32 -17t-27 -33l4 44q12 18 34.5 32t41.5 15l8 -49q16 1 32 17t27 33z" />
    <glyph glyph-name="hungarumlaut" unicode="&#x2dd;" 
d="M100 592q-9 -40 -26.5 -66t-40.5 -47l-23 11q25 25 44.5 62t24.5 79zM180 592q-8 -40 -26 -66t-41 -47l-22 11q24 25 43.5 62t24.5 79z" />
    <glyph glyph-name="Delta" unicode="&#x394;" horiz-adv-x="329" 
d="M167 23q-17 6 -25 17t-12 22l-79 312v-351h116zM278 398h-214l152 -255q-27 -11 -41.5 -30t-14.5 -37q0 -21 8.5 -33t22.5 -20h87v375zM28 0v453h273v-453h-273z" />
    <glyph glyph-name="Delta" unicode="&#x2206;" horiz-adv-x="329" 
d="M167 23q-17 6 -25 17t-12 22l-79 312v-351h116zM278 398h-214l152 -255q-27 -11 -41.5 -30t-14.5 -37q0 -21 8.5 -33t22.5 -20h87v375zM28 0v453h273v-453h-273z" />
    <glyph glyph-name="Omega" unicode="&#x3a9;" horiz-adv-x="329" 
d="M167 23q-17 6 -25 17t-12 22l-79 312v-351h116zM278 398h-214l152 -255q-27 -11 -41.5 -30t-14.5 -37q0 -21 8.5 -33t22.5 -20h87v375zM28 0v453h273v-453h-273z" />
    <glyph glyph-name="Omega" unicode="&#x2126;" horiz-adv-x="329" 
d="M167 23q-17 6 -25 17t-12 22l-79 312v-351h116zM278 398h-214l152 -255q-27 -11 -41.5 -30t-14.5 -37q0 -21 8.5 -33t22.5 -20h87v375zM28 0v453h273v-453h-273z" />
    <glyph glyph-name="pi" unicode="&#x3c0;" horiz-adv-x="329" 
d="M167 23q-17 6 -25 17t-12 22l-79 312v-351h116zM278 398h-214l152 -255q-27 -11 -41.5 -30t-14.5 -37q0 -21 8.5 -33t22.5 -20h87v375zM28 0v453h273v-453h-273z" />
    <glyph glyph-name="endash" unicode="&#x2013;" horiz-adv-x="213" 
d="M20 257v40h174v-40h-174z" />
    <glyph glyph-name="emdash" unicode="&#x2014;" horiz-adv-x="284" 
d="M20 257v40h244v-40h-244z" />
    <glyph glyph-name="quoteleft" unicode="&#x2018;" horiz-adv-x="115" 
d="M103 640q-14 -20 -24.5 -48t-12.5 -51q7 -4 15.5 -18.5t8.5 -28.5q0 -7 -3.5 -17t-8 -19t-10 -15t-10.5 -6t-10.5 6t-10.5 15t-8 19t-3 17q0 15 4 33.5t11 38t17 39.5t23 37z" />
    <glyph glyph-name="quoteright" unicode="&#x2019;" horiz-adv-x="115" 
d="M90 586q0 -29 -14.5 -71t-40.5 -77l-23 3q14 20 24.5 47.5t12.5 50.5q-7 5 -15 19t-8 28q0 8 3 17.5t8 18.5t10.5 15t10.5 6t10.5 -6t10 -15t8 -18.5t3.5 -17.5z" />
    <glyph glyph-name="quotesinglbase" unicode="&#x201a;" horiz-adv-x="115" 
d="M90 50q0 -15 -4 -33.5t-11 -38.5t-17 -40t-23 -37l-23 2q14 21 24.5 48.5t12.5 50.5q-7 4 -15 19t-8 29q0 7 3 16.5t8 18.5t10.5 15t10.5 6t10.5 -6t10 -15t8 -18.5t3.5 -16.5z" />
    <glyph glyph-name="quotedblleft" unicode="&#x201c;" horiz-adv-x="212" 
d="M103 640q-13 -20 -23.5 -48t-12.5 -51q6 -4 14.5 -18.5t8.5 -28.5q0 -7 -3 -17t-8 -19t-10.5 -15t-10.5 -6t-10.5 6t-10.5 15t-8 19t-3 17q0 15 4 33.5t11 38t17 39.5t23 37zM200 640q-14 -20 -24.5 -48t-12.5 -51q7 -4 15.5 -18.5t8.5 -28.5q0 -7 -3.5 -17t-8 -19
t-10 -15t-10.5 -6t-10.5 6t-10.5 15t-8.5 19t-3.5 17q0 15 4 33.5t11 38t17.5 39.5t22.5 37z" />
    <glyph glyph-name="quotedblright" unicode="&#x201d;" horiz-adv-x="212" 
d="M90 586q0 -29 -15 -71t-41 -77l-22 3q14 20 24.5 47.5t12.5 50.5q-7 4 -15 18.5t-8 28.5q0 8 3 17.5t8 18.5t10.5 15t10.5 6t10.5 -6t10 -15t8 -18.5t3.5 -17.5zM187 586q0 -29 -15 -71t-41 -77l-22 3q14 20 24.5 47.5t12.5 50.5q-7 4 -15.5 18.5t-8.5 28.5q0 8 3.5 17.5
t8.5 18.5t10.5 15t10.5 6t10.5 -6t10 -15t8 -18.5t3.5 -17.5z" />
    <glyph glyph-name="quotedblbase" unicode="&#x201e;" horiz-adv-x="212" 
d="M90 50q0 -30 -15 -72t-41 -77l-22 2q14 20 24.5 48t12.5 51q-7 4 -15 18.5t-8 29.5q0 7 3 16.5t8 18.5t10.5 15t10.5 6t10.5 -6t10 -15t8 -18.5t3.5 -16.5zM187 50q0 -30 -15 -72t-41 -77l-22 2q14 20 24.5 48t12.5 51q-7 4 -15.5 18.5t-8.5 29.5q0 7 3.5 16.5t8.5 18.5
t10.5 15t10.5 6t10.5 -6t10 -15t8 -18.5t3.5 -16.5z" />
    <glyph glyph-name="dagger" unicode="&#x2020;" 
d="M117 415l-7 -585h-32l-7 585l-61 -8v49l60 -8l-2 109h52l-2 -109l60 8v-49z" />
    <glyph glyph-name="daggerdbl" unicode="&#x2021;" 
d="M112 -62l-2 -108h-32l-2 107l-66 -7v49l66 -7l-5 443l-61 -8v49l60 -8l-2 109h52l-2 -109l60 8v-49l-61 8l-5 -443l66 7v-49z" />
    <glyph glyph-name="bullet" unicode="&#x2022;" horiz-adv-x="142" 
d="M123 276q0 -55 -13 -89t-39 -34q-27 0 -39.5 34t-12.5 89q0 54 12.5 89t39.5 35q26 0 39 -35t13 -89z" />
    <glyph glyph-name="ellipsis" unicode="&#x2026;" horiz-adv-x="313" 
d="M89 50q0 -7 -3 -16.5t-7.5 -18t-10.5 -14.5t-11 -6q-4 0 -10 6t-10.5 14.5t-8 18t-3.5 16.5t3.5 16.5t8 18.5t10.5 15t10 6q5 0 11 -6t10.5 -15t7.5 -18.5t3 -16.5zM188 50q0 -7 -3 -16.5t-7.5 -18t-10.5 -14.5t-11 -6q-4 0 -9.5 6t-10.5 14.5t-8 18t-3 16.5t3 16.5
t8 18.5t10.5 15t9.5 6q5 0 11 -6t10.5 -15t7.5 -18.5t3 -16.5zM287 50q0 -7 -3 -16.5t-7.5 -18t-10.5 -14.5t-11 -6q-4 0 -9.5 6t-10.5 14.5t-8 18t-3 16.5t3 16.5t8 18.5t10.5 15t9.5 6q5 0 11 -6t10.5 -15t7.5 -18.5t3 -16.5z" />
    <glyph glyph-name="perthousand" unicode="&#x2030;" horiz-adv-x="453" 
d="M256 126q0 45 -5 72.5t-15 27.5q-9 0 -15 -27.5t-6 -72.5t6 -73t15 -28q10 0 15 28t5 73zM398 126q0 45 -6 72.5t-15 27.5t-14.5 -27.5t-5.5 -72.5t5.5 -73t14.5 -28t15 28t6 73zM97 512q0 45 -5.5 73t-14.5 28t-15 -28t-6 -73t6 -72.5t15 -27.5t14.5 27.5t5.5 72.5z
M292 126q0 -58 -13.5 -94.5t-42.5 -36.5q-30 0 -43 36.5t-13 94.5q0 57 13 93.5t43 36.5q29 0 42.5 -36.5t13.5 -93.5zM88 -6l-31 8l168 642l30 -8zM433 126q0 -58 -13.5 -94.5t-42.5 -36.5t-42.5 36.5t-13.5 94.5q0 57 13.5 93.5t42.5 36.5t42.5 -36.5t13.5 -93.5zM133 512
q0 -58 -13.5 -94t-42.5 -36q-30 0 -43.5 36t-13.5 94t13.5 94.5t43.5 36.5q29 0 42.5 -36.5t13.5 -94.5z" />
    <glyph glyph-name="guilsinglleft" unicode="&#x2039;" horiz-adv-x="135" 
d="M99 130q-6 19 -16 39.5t-22.5 40t-27 37t-29.5 30.5q15 13 29.5 30.5t27 37t22.5 40t16 39.5l22 -23q-11 -38 -30 -72t-37 -52q18 -18 37 -52t30 -72z" />
    <glyph glyph-name="guilsinglright" unicode="&#x203a;" horiz-adv-x="135" 
d="M130 277q-15 -13 -29 -30.5t-26.5 -37t-22.5 -40t-16 -39.5l-22 23q11 38 30 72t38 52q-19 18 -38 52t-30 72l22 23q6 -19 16 -39.5t22.5 -40t26.5 -37t29 -30.5z" />
    <glyph glyph-name="fraction" unicode="&#x2044;" horiz-adv-x="212" 
d="M38 -6l-30 8l167 642l30 -8z" />
    <glyph glyph-name="fraction" unicode="&#x2215;" horiz-adv-x="212" 
d="M38 -6l-30 8l167 642l30 -8z" />
    <glyph glyph-name="trademark" unicode="&#x2122;" horiz-adv-x="224" 
d="M54 620v-173h-21v173h-24v18h70v-18h-25zM181 447l-4 150l-18 -150h-24l-18 150l-5 -150h-19l6 191h26l22 -159l21 159h26l6 -191h-19z" />
    <glyph glyph-name="partialdiff" unicode="&#x2202;" horiz-adv-x="329" 
d="M167 23q-17 6 -25 17t-12 22l-79 312v-351h116zM278 398h-214l152 -255q-27 -11 -41.5 -30t-14.5 -37q0 -21 8.5 -33t22.5 -20h87v375zM28 0v453h273v-453h-273z" />
    <glyph glyph-name="product" unicode="&#x220f;" horiz-adv-x="238" 
d="M134 527q0 17 -5 29t-11 12h-6v-83h6q7 0 11.5 11.5t4.5 30.5zM157 527q0 -26 -11 -45.5t-25 -19.5h-9v-104h-23v232h29q17 0 28 -18.5t11 -44.5zM196 473q0 66 -21.5 107.5t-56.5 41.5q-16 0 -30 -11t-24.5 -31t-16 -47t-5.5 -60q0 -67 21.5 -109t54.5 -42q35 0 56.5 42
t21.5 109zM219 473q0 -37 -7.5 -68.5t-21 -54.5t-32 -35.5t-40.5 -12.5q-21 0 -39.5 12.5t-31.5 35.5t-20.5 54.5t-7.5 68.5t7.5 68.5t20.5 54t31.5 35t39.5 12.5q22 0 40.5 -12.5t32 -35t21 -54t7.5 -68.5z" />
    <glyph glyph-name="summation" unicode="&#x2211;" horiz-adv-x="329" 
d="M167 23q-17 6 -25 17t-12 22l-79 312v-351h116zM278 398h-214l152 -255q-27 -11 -41.5 -30t-14.5 -37q0 -21 8.5 -33t22.5 -20h87v375zM28 0v453h273v-453h-273z" />
    <glyph glyph-name="minus" unicode="&#x2212;" horiz-adv-x="200" 
d="M20 257v40h161v-40h-161z" />
    <glyph glyph-name="radical" unicode="&#x221a;" horiz-adv-x="263" 
d="M219 597l-98 -598h-43l-42 262h-28l3 41h63l20 -130q2 -15 3 -31.5t3 -34.5h2q5 45 11.5 93t13.5 87l57 352h72v-41h-37z" />
    <glyph glyph-name="infinity" unicode="&#x221e;" horiz-adv-x="392" 
d="M308 0v410h-82v-410h-48v410h-86v-410h-48v410h-34v43h34v20q0 81 20.5 122.5t67.5 41.5q26 0 38 -14l-1 -44q-8 15 -28 15q-26 0 -37.5 -30.5t-11.5 -87.5v-23h86v15q0 93 26.5 134t76.5 41q14 0 25.5 -4.5t16.5 -10.5l-3 -43q-4 6 -12 10.5t-19 4.5q-33 0 -48 -30.5
t-15 -99.5v-17h131v-453h-49z" />
    <glyph glyph-name="integral" unicode="&#x222b;" horiz-adv-x="329" 
d="M167 23q-17 6 -25 17t-12 22l-79 312v-351h116zM278 398h-214l152 -255q-27 -11 -41.5 -30t-14.5 -37q0 -21 8.5 -33t22.5 -20h87v375zM28 0v453h273v-453h-273z" />
    <glyph glyph-name="approxequal" unicode="&#x2248;" horiz-adv-x="200" 
d="M178 212q-6 -20 -19 -29.5t-27 -9.5q-13 0 -21 4.5t-13 10.5q-8 8 -13.5 15t-16.5 7q-23 0 -40 -39l-5 39q5 20 18.5 29.5t27.5 9.5q13 0 20.5 -4.5t13.5 -10.5q8 -8 14 -14.5t16 -6.5q24 0 39 38zM178 344q-6 -20 -19 -29.5t-27 -9.5q-13 0 -21 4.5t-13 10.5
q-8 8 -13.5 15t-16.5 7q-23 0 -40 -38l-5 38q5 20 18.5 29.5t27.5 9.5q13 0 20.5 -4.5t13.5 -10.5q8 -8 14 -14.5t16 -6.5q24 0 39 38z" />
    <glyph glyph-name="notequal" unicode="&#x2260;" horiz-adv-x="291" 
d="M300 585q-4 6 -11.5 10.5t-16.5 4.5q-25 0 -36.5 -32.5t-11.5 -89.5v-25h61l-2 -43h-59v-410h-48v410h-84v-410h-48v410h-34v43h34v20q0 81 20.5 122.5t67.5 41.5q26 0 38 -14l-1 -44q-8 15 -28 15q-26 0 -37.5 -30.5t-11.5 -87.5v-23h84v22q0 80 20 124t68 44
q13 0 23 -4.5t15 -9.5z" />
    <glyph glyph-name="lessequal" unicode="&#x2264;" horiz-adv-x="158" 
d="M21 0v40h115v-40h-115zM107 203l-90 140l89 140l29 -27l-72 -113l72 -113z" />
    <glyph glyph-name="greaterequal" unicode="&#x2265;" horiz-adv-x="158" 
d="M22 0v40h115v-40h-115zM51 203l-27 27l72 113l-72 113l28 27l88 -140z" />
    <glyph glyph-name="lozenge" unicode="&#x25ca;" horiz-adv-x="210" 
d="M104 394l-48 -117l48 -117l49 117zM104 77l-86 200l86 200l87 -200z" />
    <glyph glyph-name="NUL" horiz-adv-x="0" 
 />
    <glyph glyph-name="apple" horiz-adv-x="329" 
d="M167 23q-17 6 -25 17t-12 22l-79 312v-351h116zM278 398h-214l152 -255q-27 -11 -41.5 -30t-14.5 -37q0 -21 8.5 -33t22.5 -20h87v375zM28 0v453h273v-453h-273z" />
  </font>
</defs>
</svg>
