<?xml version="1.0" standalone="no"?>
<!DOCTYPE svg PUBLIC "-//W3C//DTD SVG 1.1//EN" "http://www.w3.org/Graphics/SVG/1.1/DTD/svg11.dtd" >
<svg xmlns="http://www.w3.org/2000/svg" xmlns:xlink="http://www.w3.org/1999/xlink" version="1.1">
<metadata></metadata>
<defs>
<font id="agendaregular" horiz-adv-x="620" >
<font-face units-per-em="2048" ascent="1638" descent="-410" />
<missing-glyph horiz-adv-x="403" />
<glyph horiz-adv-x="0" />
<glyph horiz-adv-x="682" />
<glyph d="M125 1104l59 67q12 -8 49 -24.5t78 -16.5t77 16.5t46 24.5l60 -67q-6 -6 -22.5 -17.5t-41 -23.5t-55.5 -21.5t-64 -9.5q-35 0 -65.5 9.5t-55 21.5t-42 23.5t-23.5 17.5z" />
<glyph d="M233 1133q0 12 8.5 29.5t20.5 32.5t25.5 26.5t23.5 11.5t23.5 -11.5t25 -26.5t19.5 -32.5t8 -29.5t-8 -30t-19.5 -33t-24.5 -26.5t-24 -11.5q-10 0 -23.5 11.5t-25.5 26.5t-20.5 32.5t-8.5 30.5z" />
<glyph d="M133 1202q0 80 52.5 136.5t125.5 56.5q37 0 69 -15.5t55.5 -41t37.5 -61.5t14 -75q0 -41 -14 -75.5t-37.5 -60.5t-55.5 -41t-69 -15q-74 0 -126 56t-52 136zM211 1202q0 -49 28.5 -84t71.5 -35q41 0 71 35t30 84q0 51 -30 85t-71 34q-43 0 -71.5 -34t-28.5 -85z" />
<glyph unicode="&#xa;" d="M45 1055q72 57 133.5 141t95.5 170l64 -78q-23 -45 -45.5 -79.5t-47 -64.5t-53 -57.5t-61.5 -54.5zM287 1055q70 57 131 141t96 170l66 -78q-23 -45 -45.5 -79.5t-48 -64.5t-54.5 -57.5t-61 -54.5z" />
<glyph d="M162 -268q0 45 16.5 87t43 76.5t59 61.5t65.5 43h103q-80 -43 -141.5 -109.5t-61.5 -148.5q0 -47 27.5 -72.5t70.5 -25.5q35 0 59.5 10t47.5 29l-19 -80q-16 -12 -41.5 -21.5t-66.5 -9.5q-66 0 -114 42t-48 118z" />
<glyph d="M84 1247l57 60q51 -29 93 -61t77 -79q35 47 76 79t90 61l60 -60q-68 -35 -126.5 -98.5t-99.5 -134.5q-43 72 -101 135t-126 98z" />
<glyph unicode="&#xd;" horiz-adv-x="403" />
<glyph horiz-adv-x="972" d="M39 14l833 1323l64 -43l-832 -1325z" />
<glyph horiz-adv-x="874" d="M31 827v101h121v78q0 209 91 310t244 101q53 0 92 -11t68 -30l-18 -102q-23 16 -61 28.5t-83 12.5q-98 0 -155.5 -77t-57.5 -214v-96h465v-928h-121v827h-344v-827h-120v827h-121z" />
<glyph horiz-adv-x="933" d="M31 827v101h121v53q0 100 26.5 181t75.5 138.5t117.5 87t152.5 29.5q150 0 236 -69v-1131q0 -66 27.5 -104.5t72.5 -53.5l-76 -82q-53 16 -99 70.5t-46 159.5v1081q-20 12 -50 19.5t-75 7.5q-106 0 -174 -85t-68 -231v-71h183l-21 -101h-162v-827h-120v827h-121z" />
<glyph horiz-adv-x="747" d="M-4 596l129 76v635h127v-559l162 96v-113l-162 -96v-524h479v-111h-606v561l-82 -49z" />
<glyph horiz-adv-x="436" d="M-4 596l143 86v727h121v-655l135 80v-115l-135 -80v-424q0 -66 28.5 -104.5t69.5 -53.5l-73 -82q-27 8 -52.5 25.5t-46 45.5t-34 67t-13.5 92v362l-96 -55z" />
<glyph horiz-adv-x="808" d="M43 0v27l350 780q45 96 92 199.5t88 189.5l-2 2h-481v109h651v-27l-354 -782q-43 -96 -90 -198.5t-88 -188.5l2 -2h545v-109h-713zM176 1657l57 60q51 -29 93 -61t77 -79q35 47 76 79t90 61l60 -60q-68 -35 -126.5 -98.5t-99.5 -134.5q-43 72 -101 135t-126 98z" />
<glyph horiz-adv-x="673" d="M41 0v23l254 532q31 66 65.5 136.5t65.5 129.5l-2 4h-344v103h516v-23l-256 -536q-31 -66 -63.5 -132.5t-65.5 -130.5l2 -4h408v-102h-580zM156 1249l49 49q43 -23 78.5 -50t66.5 -68q29 41 64 68.5t78 49.5l49 -49q-57 -31 -106.5 -84t-84.5 -114q-37 61 -86 114.5 t-108 83.5z" />
<glyph unicode=" "  horiz-adv-x="403" />
<glyph unicode="&#x09;" horiz-adv-x="403" />
<glyph unicode="&#xa0;" horiz-adv-x="403" />
<glyph unicode="!" horiz-adv-x="405" d="M119 96q0 14 9 34t22.5 37t28 29.5t26.5 12.5t27.5 -12.5t27.5 -29.5t21.5 -37t9.5 -34t-9.5 -33.5t-21.5 -37t-27.5 -29.5t-27.5 -12t-26.5 12t-28 29.5t-22.5 37t-9 33.5zM135 1366h137l-16 -1055l-100 27z" />
<glyph unicode="&#x22;" horiz-adv-x="499" d="M61 1409h121l-28 -414h-70zM319 1409h117l-24 -414h-68z" />
<glyph unicode="#" horiz-adv-x="716" d="M31 438v78h121l49 275h-119v77h135l80 439h88l-80 -439h180l78 439h88l-78 -439h103v-77h-121l-49 -275h119v-78h-136l-79 -438h-88l79 438h-178l-80 -438h-88l80 438h-104zM240 516h178l49 275h-178z" />
<glyph unicode="$" horiz-adv-x="743" d="M66 72l24 114q41 -39 100.5 -67.5t137.5 -28.5q102 0 163.5 60.5t61.5 158.5q0 174 -209 320q-133 92 -202.5 184t-69.5 203q0 115 61.5 199.5t183.5 105.5v172h80v-168q72 -4 123 -22.5t86 -42.5l-22 -109q-35 29 -87.5 48.5t-111.5 19.5q-96 0 -145.5 -58.5 t-49.5 -134.5t49.5 -143.5t145.5 -134.5q137 -98 213 -199t76 -232q0 -135 -73 -224t-204 -105v-178h-80v172q-84 4 -144 28.5t-107 61.5z" />
<glyph unicode="%" horiz-adv-x="1171" d="M68 1051q0 123 61 198.5t162 75.5q98 0 160.5 -75.5t62.5 -198.5t-62.5 -198t-160.5 -75q-100 0 -161.5 75t-61.5 198zM135 14l836 1323l63 -43l-831 -1325zM166 1051q0 -86 36 -135.5t89 -49.5q51 0 88 49.5t37 135.5t-37 136t-88 50q-53 0 -89 -50t-36 -136zM659 256 q0 121 61.5 197.5t160.5 76.5q100 0 161.5 -76.5t61.5 -197.5q0 -123 -61.5 -198.5t-161.5 -75.5q-98 0 -160 75.5t-62 198.5zM756 256q0 -86 36.5 -136t88.5 -50q53 0 90 50t37 136t-37 135t-90 49q-51 0 -88 -49t-37 -135z" />
<glyph unicode="&#x26;" horiz-adv-x="978" d="M70 311q0 123 52 211t161 172q-74 98 -112 179t-38 159q0 70 22.5 124t59.5 92t84 57.5t96 19.5q51 0 101.5 -19.5t89.5 -57.5t62.5 -93t23.5 -125q0 -106 -62.5 -188t-163.5 -166l279 -346q35 61 63.5 135t47.5 156l82 -86q-18 -80 -48 -156t-71 -141l190 -238h-151 l-113 139q-66 -72 -148.5 -114.5t-185.5 -42.5q-74 0 -133 26.5t-101 71.5t-64.5 105.5t-22.5 125.5zM188 311q0 -47 16.5 -87t45.5 -70.5t66.5 -48t80.5 -17.5q70 0 134.5 38t121.5 103l-299 369q-84 -63 -125 -130t-41 -157zM248 1032q0 -106 129 -262q90 68 135 131 t45 129q0 84 -47 138.5t-115 54.5q-61 0 -104 -54.5t-43 -136.5z" />
<glyph unicode="'" horiz-adv-x="243" d="M61 1409h121l-28 -414h-70z" />
<glyph unicode="(" horiz-adv-x="442" d="M74 485q0 285 53 509.5t145 420.5l121 -26q-90 -188 -145 -421t-55 -485q0 -131 12 -249.5t36.5 -229t61.5 -218.5t84 -216l-127 33q-41 92 -75.5 187t-59.5 201.5t-38 228.5t-13 265z" />
<glyph unicode=")" horiz-adv-x="442" d="M49 -403q88 188 145.5 420.5t57.5 482.5q0 131 -13.5 249.5t-38 230.5t-61.5 219.5t-84 215.5l127 -33q41 -92 76 -188t59.5 -202.5t38 -228.5t13.5 -265q0 -283 -53.5 -507t-147.5 -421z" />
<glyph unicode="*" horiz-adv-x="696" d="M41 1044l16 107l246 -109l-8 308l106 26l-10 -334l227 109l56 -98l-256 -88l155 -250l-75 -84l-150 278l-135 -260l-98 45l166 269z" />
<glyph unicode="+" horiz-adv-x="770" d="M74 516v102h256v281h110v-281h256v-102h-256v-283h-110v283h-256z" />
<glyph unicode="," horiz-adv-x="333" d="M47 -217q41 53 67.5 112.5t32.5 106.5q-20 6 -43.5 36t-23.5 58q0 14 9 34t22.5 37t28 29.5t26.5 12.5t26.5 -12.5t29 -29.5t23.5 -37t9 -34q0 -31 -12.5 -70.5t-33 -83.5t-49 -88t-59.5 -79z" />
<glyph unicode="-" horiz-adv-x="563" d="M74 516v102h415v-102h-415z" />
<glyph unicode="." horiz-adv-x="333" d="M78 96q0 14 9 34t22.5 37t28 29.5t26.5 12.5t27.5 -12.5t28.5 -29.5t22.5 -37t9.5 -34t-9.5 -33.5t-22.5 -37t-28.5 -29.5t-27.5 -12t-26.5 12t-28 29.5t-22.5 37t-9 33.5z" />
<glyph unicode="/" horiz-adv-x="999" d="M43 31l831 1317l82 -54l-829 -1321z" />
<glyph unicode="0" horiz-adv-x="911" d="M74 655q0 160 28.5 285t79.5 211t121 130t152 44q80 0 149.5 -45t121.5 -130t82 -210t30 -285q0 -162 -30 -287.5t-81 -211.5t-121.5 -130t-150.5 -44q-82 0 -152 44t-121 130t-79.5 211t-28.5 288zM197 655q0 -139 20.5 -244.5t55 -176t81.5 -107.5t101 -37q53 0 101 36 t84 107.5t56.5 177t20.5 244.5q0 137 -21.5 241.5t-57.5 175.5t-83 108t-100 37t-100.5 -37t-82 -108t-55 -175t-20.5 -242z" />
<glyph unicode="1" horiz-adv-x="499" d="M23 1186l22 106l305 31v-1323h-119v1208z" />
<glyph unicode="2" horiz-adv-x="753" d="M47 0v29q115 137 204 269t150.5 249t93 217t31.5 178q0 147 -62.5 212t-156.5 65q-66 0 -114 -21.5t-93 -58.5l-22 110q43 29 100.5 52.5t132.5 23.5q150 0 242 -93t92 -290q0 -88 -36 -195.5t-93 -219t-130 -221t-146 -202.5h458v-104h-651z" />
<glyph unicode="3" horiz-adv-x="694" d="M43 160q41 -33 93 -52.5t106 -19.5q113 0 187.5 81t74.5 234q0 55 -18.5 106.5t-49 89.5t-71.5 60.5t-86 22.5h-25.5t-24.5 -2l-22 100q96 29 156.5 93.5t60.5 146.5q0 84 -44 142.5t-128 58.5q-47 0 -88 -15.5t-78 -44.5l-20 107q37 25 85 41t109 16q63 0 115.5 -22.5 t89.5 -61.5t57.5 -93t20.5 -118q0 -92 -48.5 -165.5t-113.5 -102.5q47 -10 91 -39t78 -77t54.5 -111.5t20.5 -141.5q0 -188 -94.5 -298.5t-278.5 -110.5q-55 0 -101.5 13t-80.5 34z" />
<glyph unicode="4" horiz-adv-x="798" d="M18 469l502 838h90v-838h131v-100h-131v-369h-116v369h-455zM139 469h355v403v99.5t4 103.5l-4 2q-29 -53 -58.5 -106t-56.5 -99z" />
<glyph unicode="5" horiz-adv-x="741" d="M84 162q102 -74 215 -74q53 0 99 21.5t80 61.5t52.5 95.5t18.5 122.5q0 68 -19.5 123t-52.5 96t-79 63.5t-97 22.5q-55 0 -100 -10t-80 -27l16 650h451l-19 -105h-317l-10 -414q35 10 86 11q74 0 136 -30t108 -83t72 -129t26 -168q0 -86 -23.5 -159.5t-69 -129t-112 -86 t-154.5 -30.5q-59 0 -113.5 14t-86.5 37z" />
<glyph unicode="6" horiz-adv-x="827" d="M72 432q0 131 35.5 261t99 249t151.5 218.5t191 170.5l119 -47q-76 -49 -142.5 -112.5t-123 -137t-99.5 -154.5t-70 -165q23 33 73 60.5t118 27.5q74 0 135.5 -31t105.5 -85t68.5 -130t24.5 -166q0 -88 -23.5 -162.5t-67.5 -129t-106.5 -85t-140.5 -30.5 q-74 0 -137.5 29.5t-110.5 87t-73.5 141.5t-26.5 190zM195 414q0 -72 18 -132.5t49 -103.5t72 -66.5t88 -23.5q45 0 85 22.5t68.5 62.5t45 95t16.5 121q0 135 -62.5 221t-160.5 86q-76 0 -133.5 -40t-79.5 -124q-2 -16 -4 -48.5t-2 -69.5z" />
<glyph unicode="7" horiz-adv-x="729" d="M35 1202v105h672l-437 -1307h-127l404 1202h-512z" />
<glyph unicode="8" horiz-adv-x="839" d="M72 348q0 72 21.5 131.5t55 104.5t73.5 76.5t77 48.5q-72 41 -127 118.5t-55 186.5q0 70 23.5 127t63.5 98t95 63.5t121 22.5q63 0 118.5 -22.5t95.5 -62.5t63.5 -98.5t23.5 -127.5q0 -109 -56.5 -189t-125.5 -116q37 -16 77.5 -47t73.5 -77t54.5 -105.5t21.5 -131.5 q0 -86 -26.5 -153.5t-74 -114.5t-110.5 -72.5t-135 -25.5q-74 0 -137.5 25.5t-110.5 72.5t-73.5 114.5t-26.5 153.5zM186 350q0 -59 19.5 -107t51.5 -83t73 -54.5t86 -19.5t87 19.5t73.5 54.5t50 83t18.5 107q0 57 -19.5 104.5t-52 84t-75.5 63.5t-88 43q-43 -16 -83 -43 t-72 -63.5t-50.5 -83.5t-18.5 -105zM236 1014q0 -88 51 -149.5t137 -96.5q86 35 134 96.5t48 149.5q0 92 -54 150.5t-132 58.5q-76 0 -130 -58.5t-54 -150.5z" />
<glyph unicode="9" horiz-adv-x="827" d="M68 920q0 88 23.5 161.5t68.5 128t106.5 85t139.5 30.5q74 0 138 -29.5t110 -87t73 -140.5t27 -189q0 -133 -36 -263.5t-98.5 -249t-149.5 -219t-189 -170.5l-121 48q76 49 142.5 112.5t121.5 137t98 153.5t70 164q-23 -33 -72 -59.5t-119 -26.5q-74 0 -134 29.5t-105 85 t-69.5 131t-24.5 168.5zM188 920q0 -137 62.5 -222.5t161.5 -85.5q78 0 134 39t79 123q4 16 6 49t2 72q0 72 -18.5 131t-49 102t-72.5 67t-87 24q-47 0 -87 -22.5t-69 -62.5t-45.5 -94.5t-16.5 -119.5z" />
<glyph unicode=":" horiz-adv-x="333" d="M78 96q0 14 9 34t22.5 37t28 29.5t26.5 12.5t27.5 -12.5t28.5 -29.5t22.5 -37t9.5 -34t-9.5 -33.5t-22.5 -37t-28.5 -29.5t-27.5 -12t-26.5 12t-28 29.5t-22.5 37t-9 33.5zM78 831q0 14 9 34t22.5 37.5t28 29.5t26.5 12t27.5 -12t28.5 -29.5t22.5 -37.5t9.5 -34 t-9.5 -33.5t-22.5 -37t-28.5 -29.5t-27.5 -12t-26.5 12t-28 29.5t-22.5 37t-9 33.5z" />
<glyph unicode=";" horiz-adv-x="333" d="M47 -217q41 53 67.5 112.5t32.5 106.5q-20 6 -43.5 36t-23.5 58q0 14 9 34t22.5 37t28 29.5t26.5 12.5t26.5 -12.5t29 -29.5t23.5 -37t9 -34q0 -31 -12.5 -70.5t-33 -83.5t-49 -88t-59.5 -79zM78 831q0 14 9 34t22.5 37.5t28 29.5t26.5 12t27.5 -12t28.5 -29.5 t22.5 -37.5t9.5 -34t-9.5 -33.5t-22.5 -37t-28.5 -29.5t-27.5 -12t-26.5 12t-28 29.5t-22.5 37t-9 33.5z" />
<glyph unicode="&#x3c;" horiz-adv-x="587" d="M78 567l303 338l78 -74l-236 -264l236 -264l-76 -74z" />
<glyph unicode="=" horiz-adv-x="770" d="M74 354v101h622v-101h-622zM74 680v100h622v-100h-622z" />
<glyph unicode="&#x3e;" horiz-adv-x="587" d="M131 303l234 264l-234 264l76 74l303 -338l-303 -338z" />
<glyph unicode="?" horiz-adv-x="653" d="M47 1298q35 35 90.5 60.5t132.5 25.5q137 0 225.5 -87.5t88.5 -243.5q0 -104 -46 -187.5t-112 -167.5q-49 -59 -71.5 -125.5t-22.5 -138.5q0 -35 2 -66.5t8 -60.5l-104 29q-4 25 -8.5 54.5t-4.5 60.5q0 94 29 176t80 147q53 72 90 136.5t37 148.5q0 92 -52.5 155.5 t-142.5 63.5q-66 0 -114 -25.5t-82 -66.5zM209 96q0 14 9 34t22.5 37t29 29.5t27.5 12.5t27.5 -12.5t28 -29.5t21.5 -37t9 -34t-9 -33.5t-21.5 -37t-28 -29.5t-27.5 -12t-27.5 12t-29 29.5t-22.5 37t-9 33.5z" />
<glyph unicode="@" horiz-adv-x="1273" d="M74 537q0 168 51 312t140 250.5t210 167t258 60.5q111 0 198 -42t146.5 -114.5t91 -171t31.5 -211.5q0 -82 -20.5 -172t-60.5 -165.5t-97 -125t-133 -49.5q-51 0 -82 33t-31 97q-29 -59 -85 -94.5t-132 -35.5q-78 0 -134 70t-56 186q0 111 32.5 200t86 152.5t121 98.5 t139.5 35q61 0 105 -20.5t69 -47.5l-62 -444q-2 -20 -3 -35.5t-1 -28.5q0 -74 43 -73q31 0 68 31.5t68.5 89t52 134t20.5 167.5q0 94 -26.5 176t-76 143t-120 96t-158.5 35q-113 0 -213 -54t-177 -149.5t-122 -224.5t-45 -276q0 -115 27.5 -202t76 -146.5t114 -89 t140.5 -29.5q113 0 185 63l-27 -106q-53 -43 -170 -43q-98 0 -180 38.5t-140.5 110.5t-90 174.5t-31.5 229.5zM469 535q0 -78 31.5 -124t81.5 -46q68 0 124 70.5t78 211.5l31 258q-10 10 -31.5 16.5t-46.5 6.5q-49 0 -97 -31t-86 -83t-61.5 -125t-23.5 -154z" />
<glyph unicode="A" horiz-adv-x="985" d="M45 0l418 1325h59l420 -1325h-127l-115 371h-419l-115 -371h-121zM313 473h353l-119 393q-16 45 -29.5 94.5t-23.5 102.5h-5q-12 -53 -26 -103.5t-29 -93.5z" />
<glyph unicode="B" horiz-adv-x="845" d="M115 0v1307h256q57 0 111.5 -20.5t95 -60.5t66.5 -99.5t26 -139.5q0 -90 -35 -158.5t-92 -91.5q45 -10 87 -38.5t74.5 -74.5t53 -106.5t20.5 -130.5q0 -90 -28.5 -161.5t-76.5 -122t-111.5 -77t-133.5 -26.5h-313zM240 109h170q47 0 90 18t76.5 53t53 87t19.5 120 t-20.5 120t-54 88t-77.5 54.5t-94 18.5h-163v-559zM240 774h120q72 0 128.5 51t56.5 162q0 109 -56.5 161t-132.5 52h-116v-426z" />
<glyph unicode="C" horiz-adv-x="958" d="M74 653q0 154 44 279t117.5 212t172 134t206.5 47q98 0 172 -21.5t123 -54.5l-20 -112q-41 31 -109.5 54t-148.5 23q-88 0 -166 -39.5t-136.5 -113.5t-92 -177.5t-33.5 -230.5t33.5 -230.5t91 -176t135.5 -112.5t168 -40q86 0 155.5 20.5t120.5 57.5l-24 -131 q-47 -29 -110.5 -44t-158.5 -15q-109 0 -207 47t-171.5 135t-117.5 212t-44 277z" />
<glyph unicode="D" horiz-adv-x="1040" d="M115 0v1307h274q119 0 223.5 -40t182 -121t124 -204t46.5 -289t-46.5 -288.5t-124 -203.5t-182 -121t-223.5 -40h-274zM242 111h133q98 0 182 32.5t145.5 99t96.5 169t35 241.5t-35 241.5t-96.5 169t-145.5 99.5t-182 33h-133v-1085z" />
<glyph unicode="E" horiz-adv-x="759" d="M115 0v1307h555v-111h-428v-483h352v-111h-352v-491h483v-111h-610z" />
<glyph unicode="F" horiz-adv-x="710" d="M115 0v1307h569v-111h-442v-483h379v-111h-379v-602h-127z" />
<glyph unicode="G" horiz-adv-x="1089" d="M74 653q0 154 44 279t117.5 212t172 134t206.5 47q102 0 183.5 -24.5t134.5 -63.5l-23 -117q-53 41 -123.5 67.5t-154.5 26.5q-88 0 -167 -39.5t-137.5 -113.5t-92 -178.5t-33.5 -231.5t33.5 -229.5t92 -176t135.5 -113.5t165 -40q82 0 147.5 22.5t102.5 55.5v354h-263 v107h381v-516q-66 -66 -160 -99.5t-217 -33.5q-113 0 -212 47t-172.5 135t-116.5 212t-43 277z" />
<glyph unicode="H" horiz-adv-x="1048" d="M115 0v1307h127v-594h565v594h127v-1307h-127v602h-565v-602h-127z" />
<glyph unicode="I" horiz-adv-x="409" d="M141 0v1307h127v-1307h-127z" />
<glyph unicode="J" horiz-adv-x="434" d="M-92 -135q123 33 190.5 122t67.5 267v1053h127v-1067q0 -104 -25.5 -184.5t-68.5 -136.5t-98.5 -91t-116.5 -51z" />
<glyph unicode="K" horiz-adv-x="864" d="M115 0v1307h125v-631l436 631h141l-450 -643l475 -664h-150l-452 635v-635h-125z" />
<glyph unicode="L" horiz-adv-x="737" d="M115 0v1307h127v-1196h477v-111h-604z" />
<glyph unicode="M" horiz-adv-x="1357" d="M98 0l84 1307h88l281 -729q33 -86 66.5 -179.5t62.5 -185.5h4q29 90 62.5 182t68.5 183l279 729h86l88 -1307h-121l-43 655l-8 164t-6 166h-5q-27 -82 -60.5 -170t-61.5 -164l-254 -661h-56l-256 661q-29 74 -61.5 161t-61.5 173h-4q-2 -86 -6 -171t-8 -159l-43 -655 h-115z" />
<glyph unicode="N" horiz-adv-x="1126" d="M115 0v1307h92l459 -680q27 -39 55.5 -83t58 -89t57 -89t52.5 -83l4 2q-4 86 -4 174v166v682h123v-1327h-49l-486 710q-59 88 -123.5 184.5t-115.5 178.5l-5 -2q4 -88 5.5 -178.5t1.5 -174.5v-698h-125z" />
<glyph unicode="O" horiz-adv-x="1214" d="M74 655q0 150 41 273t113.5 211t170 137t207.5 49q111 0 209 -49t170 -137t114 -211t42 -273q0 -152 -42 -275.5t-114 -211.5t-170 -137t-209 -49t-208 49t-169.5 137t-113.5 212t-41 275zM203 655q0 -125 32.5 -228t88 -177t128 -115t154.5 -41t156 41t129 115t88 177 t33 228t-33 227.5t-88 176.5t-129 114.5t-156 40.5t-154.5 -40.5t-128 -114.5t-88 -176.5t-32.5 -227.5z" />
<glyph unicode="P" horiz-adv-x="761" d="M115 0v1307h295q66 0 124 -26t102 -72t69.5 -110.5t25.5 -144.5t-25.5 -145.5t-68.5 -111.5t-100.5 -70.5t-120.5 -24.5h-174v-602h-127zM242 713h155q86 0 146.5 64t60.5 177t-61.5 178.5t-151.5 65.5h-149v-485z" />
<glyph unicode="Q" horiz-adv-x="1214" d="M74 655q0 150 41 273t113.5 211t170 137t207.5 49q111 0 209 -49t170 -137t114 -211t42 -273q0 -125 -31 -234.5t-86 -194.5t-130 -141t-163 -75v-4q18 -4 44 -16.5t61 -32.5q78 -43 135 -61.5t114 -18.5q66 0 121 25l-78 -113q-31 -10 -75 -10q-80 0 -146.5 22.5 t-156.5 75.5q-59 35 -111.5 63.5t-89.5 45.5q-102 12 -188.5 66t-151 141.5t-100 205t-35.5 256.5zM203 655q0 -125 32.5 -228t88 -177t128 -115t154.5 -41t156 41t129 115t88 177t33 228t-33 227.5t-88 176.5t-129 114.5t-156 40.5t-154.5 -40.5t-128 -114.5t-88 -176.5 t-32.5 -227.5z" />
<glyph unicode="R" horiz-adv-x="878" d="M115 0v1307h299q66 0 124 -26t102 -72t69.5 -110.5t25.5 -144.5q0 -123 -58.5 -209t-146.5 -116l365 -629h-139l-348 602h-166v-602h-127zM242 713h161q86 0 145.5 64t59.5 177t-60.5 178.5t-150.5 65.5h-155v-485z" />
<glyph unicode="S" horiz-adv-x="759" d="M45 219q59 -53 134 -89t165 -36q96 0 158.5 57.5t62.5 161.5q0 96 -49 170t-160 148q-139 92 -203.5 184t-64.5 205q0 61 20.5 116.5t60.5 97.5t99.5 66.5t137.5 24.5q74 0 131 -21.5t88 -43.5l-23 -111q-29 25 -81 46.5t-111 21.5q-98 0 -147.5 -56.5t-49.5 -132.5 q0 -72 45 -139.5t143 -134.5q139 -96 216 -193.5t77 -236.5q0 -162 -94 -252t-254 -90q-92 0 -161.5 26.5t-110.5 59.5z" />
<glyph unicode="T" horiz-adv-x="845" d="M10 1196v111h826v-111h-351v-1196h-125v1196h-350z" />
<glyph unicode="U" horiz-adv-x="1044" d="M115 375v932h127v-922q0 -137 73.5 -214t208.5 -77t209 77t74 214v922h123v-932q0 -92 -30 -166t-83 -124t-128 -76.5t-167 -26.5t-166.5 26.5t-128 76.5t-83 124t-29.5 166z" />
<glyph unicode="V" horiz-adv-x="927" d="M29 1307h131l211 -689q23 -78 48 -168t48 -176h4q23 86 47.5 175.5t48.5 168.5l211 689h119l-405 -1321h-56z" />
<glyph unicode="W" horiz-adv-x="1525" d="M45 1307h127l184 -684q23 -78 45.5 -165t38.5 -175h4q20 86 41 174t43 166l183 684h114l183 -684q23 -80 44 -167t38 -173h4q18 84 40.5 172t45.5 168l182 684h117l-363 -1321h-55l-203 731q-25 86 -47.5 174t-46.5 192h-4q-23 -104 -46.5 -192t-45.5 -174l-203 -731h-55 z" />
<glyph unicode="X" horiz-adv-x="905" d="M45 0l334 672l-316 635h138l172 -346q20 -39 42.5 -84.5t39.5 -88.5h4q16 43 37.5 88.5t42.5 84.5l174 346h129l-314 -633l332 -674h-137l-182 371q-23 41 -44.5 89t-43.5 97h-4q-18 -49 -43 -97t-44 -89l-186 -371h-131z" />
<glyph unicode="Y" horiz-adv-x="946" d="M23 1307h135l211 -392q29 -51 56.5 -101t49.5 -97h4q23 47 51.5 99t53.5 99l213 392h127l-389 -713v-594h-125v592z" />
<glyph unicode="Z" horiz-adv-x="808" d="M43 0v27l350 780q45 96 92 199.5t88 189.5l-2 2h-481v109h651v-27l-354 -782q-43 -96 -90 -198.5t-88 -188.5l2 -2h545v-109h-713z" />
<glyph unicode="[" horiz-adv-x="516" d="M111 -414v1807h350v-105h-232v-1597h232v-105h-350z" />
<glyph unicode="\" horiz-adv-x="999" d="M43 1294l82 54l831 -1317l-84 -58z" />
<glyph unicode="]" horiz-adv-x="516" d="M59 -309h232v1597h-232v105h351v-1807h-351v105z" />
<glyph unicode="^" horiz-adv-x="645" d="M63 1087q78 41 144.5 111t114.5 150q47 -80 114.5 -150t145.5 -111l-68 -69q-57 29 -104.5 66.5t-87.5 91.5q-39 -53 -86.5 -91t-104.5 -67z" />
<glyph unicode="_" horiz-adv-x="841" d="M-2 -315h848v-103h-848v103z" />
<glyph unicode="`" d="M131 1200l25 115q59 -78 147 -134.5t178 -86.5l-63 -62q-78 23 -151.5 62t-135.5 106z" />
<glyph unicode="a" horiz-adv-x="755" d="M61 250q0 68 21.5 120t57.5 89t82 57.5t97 24.5l183 18v92q0 90 -46 140.5t-132 50.5q-53 0 -105.5 -19.5t-87.5 -48.5l-20 105q41 31 98 48t123 17q129 0 209 -78t80 -225v-428q0 -72 30.5 -105.5t69.5 -44.5l-72 -81q-41 10 -76.5 43.5t-44.5 83.5q-29 -57 -88 -91 t-131 -34q-111 0 -179.5 73.5t-68.5 192.5zM176 250q0 -72 41 -119t98 -47q33 0 67 16.5t60.5 45t43 68.5t16.5 87v158l-166 -17q-72 -6 -116 -57t-44 -135z" />
<glyph unicode="b" horiz-adv-x="856" d="M111 68v1341h118v-514q29 25 71 37t95 12q84 0 157 -35t126 -98t84 -151.5t31 -194.5q0 -109 -30 -198t-84 -151.5t-131 -97t-169 -34.5q-86 0 -153.5 24.5t-114.5 59.5zM229 129q27 -16 64 -28.5t86 -12.5q68 0 122 27.5t91 78t57.5 119t20.5 152.5q0 82 -22.5 151.5 t-60.5 118.5t-88 77t-108 28q-49 0 -91 -17.5t-71 -46.5v-647z" />
<glyph unicode="c" horiz-adv-x="747" d="M63 463q0 111 31 200t85 151.5t127 96t157 33.5q72 0 129 -18.5t98 -42.5l-20 -109q-39 31 -89.5 48.5t-107.5 17.5q-61 0 -114.5 -28t-92.5 -78t-60.5 -119.5t-21.5 -151.5t22.5 -150.5t61.5 -119t92.5 -78t116.5 -27.5q57 0 106.5 14.5t100.5 47.5l-25 -121 q-35 -23 -86 -34t-110 -11q-84 0 -157 33.5t-126 95t-85 150.5t-32 200z" />
<glyph unicode="d" horiz-adv-x="880" d="M63 463q0 104 29 193t80 152.5t124 99.5t159 36q59 0 111 -18.5t83 -44.5v528h121v-1409h-102l-4 70q-35 -41 -94.5 -63.5t-131.5 -22.5q-74 0 -141.5 32.5t-119.5 95t-83 151.5t-31 200zM186 463q0 -82 20.5 -150.5t56.5 -119t86 -78t110 -27.5q59 0 108 25.5t82 64.5 v574q-29 37 -80 62.5t-110 25.5t-109.5 -28t-86.5 -78t-56.5 -119.5t-20.5 -151.5z" />
<glyph unicode="e" horiz-adv-x="802" d="M63 463q0 111 30 199t80 151.5t115.5 97t137.5 33.5q78 0 137.5 -29.5t99 -78t59 -109.5t19.5 -127v-36.5t-4 -35.5l-69 -67h-482q-1 -12 -1 -24q1 -59 17 -115q20 -68 57.5 -120t93 -83t122.5 -31q127 0 225 80l-26 -129q-41 -27 -92.5 -41t-120.5 -14q-84 0 -157 34.5 t-126 98t-84 151.5t-31 195zM193 559h430q2 6 2 18.5v18.5q0 43 -12.5 87t-37 80t-60.5 58.5t-85 22.5q-45 0 -85 -23.5t-71.5 -63.5t-53 -91.5t-27.5 -106.5z" />
<glyph unicode="f" horiz-adv-x="544" d="M31 827v101h121v84q0 199 80.5 302t234.5 103q39 0 71.5 -8t57.5 -23l-18 -102q-23 12 -53.5 21.5t-65.5 9.5q-90 0 -138.5 -77t-48.5 -200v-110h236l-16 -101h-220v-827h-120v827h-121z" />
<glyph unicode="g" horiz-adv-x="768" d="M47 -127q0 117 55.5 184.5t122.5 89.5l-94 93q0 45 34 83.5t73 53.5q-57 33 -98.5 99.5t-41.5 164.5q0 135 77 219t204 84q31 0 56.5 -5t41.5 -11q45 -16 96 -17q35 0 65 9.5t48 23.5l21 -100q-14 -10 -45 -18.5t-56 -8.5q23 -27 38 -73t15 -103q0 -61 -19 -116.5 t-55 -97.5t-87.5 -65.5t-116.5 -23.5q-59 0 -92 -21.5t-33 -48.5q0 -10 22.5 -33.5t51.5 -33.5l170 -58q104 -35 159.5 -106t55.5 -182q0 -61 -23.5 -115.5t-66.5 -93.5t-104.5 -61.5t-137.5 -22.5q-78 0 -139.5 23.5t-105.5 65.5t-67.5 99t-23.5 123zM158 -129 q0 -41 15 -79t44 -67.5t70 -47t94 -17.5q51 0 92 16.5t69.5 44t43 62.5t14.5 72q0 68 -34 116.5t-101 71.5l-133 41q-76 -8 -125 -63.5t-49 -149.5zM209 641q0 -90 48 -148.5t122 -58.5q70 0 120 58.5t50 148.5q0 43 -13.5 81t-36 65.5t-53 44t-67.5 16.5q-74 0 -122 -59.5 t-48 -147.5z" />
<glyph unicode="h" horiz-adv-x="849" d="M111 0v1409h118v-571q29 41 83.5 73.5t148.5 32.5q129 0 208 -78t79 -213v-653h-119v641q0 92 -50.5 145.5t-144.5 53.5q-92 0 -148.5 -54.5t-56.5 -144.5v-641h-118z" />
<glyph unicode="i" horiz-adv-x="395" d="M121 1198q0 12 8 29.5t20.5 33t25.5 26.5t24 11q10 0 23.5 -11t25.5 -26.5t20 -33t8 -29.5t-8 -28.5t-20 -32t-25.5 -25.5t-23.5 -10t-23.5 10t-26 25.5t-20.5 32t-8 28.5zM137 0v928h121v-928h-121z" />
<glyph unicode="j" horiz-adv-x="395" d="M-33 -356q86 27 128 98.5t42 200.5v985h121v-996q0 -147 -63.5 -241t-155.5 -125zM121 1198q0 12 8 29.5t20.5 33t25.5 26.5t24 11q10 0 23.5 -11t24.5 -26.5t19 -33t8 -29.5t-8 -28.5t-19 -32t-24.5 -25.5t-23.5 -10t-23.5 10t-26 25.5t-20.5 32t-8 28.5z" />
<glyph unicode="k" horiz-adv-x="731" d="M111 0v1409h118v-928l332 447h137l-338 -455l361 -473h-148l-344 455v-455h-118z" />
<glyph unicode="l" horiz-adv-x="432" d="M137 205v1204h119v-1194q0 -66 28.5 -104.5t71.5 -53.5l-73 -82q-27 8 -53.5 25.5t-47 45.5t-33 67t-12.5 92z" />
<glyph unicode="m" horiz-adv-x="1280" d="M98 0v928h109l2 -90q29 41 81 73.5t146 32.5q78 0 136.5 -35t86.5 -94q27 55 91.5 92t164.5 37q119 0 193 -71.5t74 -192.5v-680h-119v670q0 84 -47 127t-131 43q-82 0 -133.5 -46t-51.5 -126v-668h-118v670q0 84 -47.5 127t-131.5 43q-82 0 -134 -46t-52 -126v-668h-119 z" />
<glyph unicode="n" horiz-adv-x="835" d="M98 0v928h109l2 -99q29 45 85 80t155 35q129 0 208.5 -78t79.5 -213v-653h-121v641q0 92 -49 145.5t-145 53.5q-92 0 -148.5 -54.5t-56.5 -144.5v-641h-119z" />
<glyph unicode="o" horiz-adv-x="909" d="M63 463q0 104 29 193t81 152.5t125 99.5t159 36t157.5 -36t122.5 -99.5t80 -152.5t29 -193t-29 -192.5t-80 -152t-122.5 -99t-157.5 -35.5t-159 35.5t-125 99t-81 151.5t-29 193zM186 463q0 -82 20.5 -150.5t57.5 -119t86 -78t107 -27.5q55 0 104 27.5t86 78t57.5 119 t20.5 150.5t-20.5 151.5t-57.5 119.5t-86 78t-104 28q-57 0 -106.5 -28t-86.5 -78t-57.5 -119.5t-20.5 -151.5z" />
<glyph unicode="p" horiz-adv-x="880" d="M111 -432v1360h102l4 -70q76 86 225 86q74 0 141.5 -32.5t120 -95t83 -151.5t30.5 -200q0 -104 -28.5 -193.5t-80 -153t-124 -99t-158.5 -35.5q-59 0 -111.5 18t-85.5 45v-479h-118zM229 176q31 -37 82 -62.5t111 -25.5q59 0 109.5 27.5t86 78t56 120t20.5 151.5 t-20.5 150.5t-56 118.5t-86 78t-109.5 28t-108.5 -26t-84.5 -64v-574z" />
<glyph unicode="q" horiz-adv-x="856" d="M63 467q0 109 30 197t83 150.5t126 96t157 33.5q55 0 110.5 -14.5t94.5 -36.5l41 49h40v-1374h-118v465q-66 -49 -164 -49q-86 0 -159 34.5t-126 99t-84 152.5t-31 197zM186 467q0 -84 21.5 -153.5t59.5 -120t89.5 -78t108.5 -27.5q47 0 88 17.5t74 46.5v639 q-29 20 -72 34.5t-92 14.5q-59 0 -110.5 -28t-88.5 -77t-57.5 -117.5t-20.5 -150.5z" />
<glyph unicode="r" horiz-adv-x="544" d="M117 0v928h112l4 -160q23 76 91.5 123t173.5 47l20 -111h-18q-113 0 -188.5 -87t-75.5 -246v-494h-119z" />
<glyph unicode="s" horiz-adv-x="624" d="M51 188q43 -45 103.5 -73.5t128.5 -28.5q66 0 109.5 37t43.5 100q0 61 -37 108.5t-102 88.5q-106 68 -160.5 134.5t-54.5 162.5q0 104 69.5 165.5t174.5 61.5q61 0 110 -17.5t70 -33.5l-19 -102q-23 16 -63.5 33.5t-95.5 17.5t-92 -33t-37 -86q0 -59 33.5 -99t97.5 -81 q111 -72 168 -143t57 -171q0 -111 -71.5 -178t-196.5 -67q-72 0 -124 19.5t-85 45.5z" />
<glyph unicode="t" horiz-adv-x="589" d="M25 827v101h153v196l119 62v-258h266l-18 -101h-248v-602q0 -68 31.5 -100.5t81.5 -32.5q57 0 88 23l-23 -113q-29 -14 -82 -14q-92 0 -154.5 59t-62.5 174v606h-151z" />
<glyph unicode="u" horiz-adv-x="835" d="M98 274v654h119v-641q0 -92 50 -145.5t147 -53.5q92 0 147 54.5t55 144.5v641h121v-928h-108l-4 96q-27 -45 -83.5 -78.5t-154.5 -33.5q-129 0 -209 77.5t-80 212.5z" />
<glyph unicode="v" horiz-adv-x="772" d="M47 928h119l153 -469q18 -53 36 -112.5t34 -119.5h4q14 59 31.5 117.5t36.5 114.5l153 469h111l-311 -940h-56z" />
<glyph unicode="w" horiz-adv-x="1206" d="M53 928h115l135 -459q16 -57 31.5 -116.5t25.5 -112.5h5q12 53 27.5 112.5t31.5 114.5l135 461h94l133 -459q16 -59 32 -114.5t30 -114.5h4q12 59 27.5 115.5t31.5 111.5l133 461h109l-279 -940h-53l-147 491q-18 61 -34.5 123t-33.5 127h-4q-16 -66 -33.5 -128 t-33.5 -118l-148 -495h-53z" />
<glyph unicode="x" horiz-adv-x="733" d="M55 0l242 473l-229 455h131l114 -230q29 -57 54 -112h4q12 29 25.5 57.5t29.5 56.5l117 228h123l-230 -447l242 -481h-129l-125 246q-16 31 -30.5 62.5t-24.5 64.5h-4q-14 -33 -30 -66t-32 -61l-127 -246h-121z" />
<glyph unicode="y" horiz-adv-x="784" d="M-4 -360q51 20 97 54t88 87t79 128t74 177l-291 842h121l153 -451q18 -53 39 -110.5t37 -116.5h4q16 57 36 113.5t40 111.5l156 453h112l-290 -838q-43 -121 -86 -209t-91.5 -150.5t-99.5 -102.5t-108 -66z" />
<glyph unicode="z" horiz-adv-x="673" d="M41 0v23l254 532q31 66 65.5 136.5t65.5 129.5l-2 4h-344v103h516v-23l-256 -536q-31 -66 -63.5 -132.5t-65.5 -130.5l2 -4h408v-102h-580z" />
<glyph unicode="{" horiz-adv-x="581" d="M23 492q90 63 125.5 169.5t35.5 239.5q0 104 16.5 195.5t54.5 157t99.5 103.5t151.5 38l29 -99q-68 0 -113 -28.5t-71.5 -80.5t-38 -126t-11.5 -162q0 -129 -31.5 -234.5t-109.5 -172.5q78 -68 109.5 -173.5t31.5 -238.5q0 -90 11.5 -164t38 -126t71.5 -82t113 -30 l-29 -96q-90 0 -151.5 38t-99.5 104.5t-54.5 157.5t-16.5 198q0 135 -35.5 242.5t-125.5 169.5z" />
<glyph unicode="|" horiz-adv-x="366" d="M131 -432v1841h102v-1841h-102z" />
<glyph unicode="}" horiz-adv-x="581" d="M47 -322q68 0 113 30t71.5 82t38 126t11.5 164q0 133 31.5 238.5t109.5 173.5q-78 68 -109.5 173t-31.5 234q0 88 -11.5 162t-38 126t-71.5 80.5t-113 28.5l27 99q92 0 153.5 -38t100.5 -103.5t55 -156.5t16 -196q0 -133 35 -239.5t125 -169.5q-90 -61 -125 -169 t-35 -243q0 -106 -16 -197.5t-55 -158t-100.5 -104.5t-153.5 -38z" />
<glyph unicode="~" horiz-adv-x="655" d="M88 473l16 100q51 41 113 68t127 31l27 -109q49 4 103 32t97 62l-18 -100q-49 -41 -111.5 -67.5t-128.5 -30.5l-26 108q-49 -4 -103.5 -31.5t-95.5 -62.5z" />
<glyph unicode="&#xa1;" horiz-adv-x="405" d="M115 1212q0 14 9 34t21.5 37t27.5 29.5t28 12.5q12 0 26.5 -12.5t27.5 -29.5t22.5 -37t9.5 -34t-9.5 -33.5t-22.5 -37t-27.5 -29.5t-26.5 -12t-27.5 12t-28 29.5t-21.5 37t-9 33.5zM131 -57l21 1056l100 -28l18 -1028h-139z" />
<glyph unicode="&#xa2;" horiz-adv-x="747" d="M63 836q0 102 28 186t75 145.5t112.5 99.5t141.5 48v178h78v-178q61 -2 109 -19.5t83 -40.5l-20 -108q-39 31 -89.5 48t-107.5 17q-61 0 -114.5 -27.5t-92.5 -77.5t-60.5 -119.5t-21.5 -151.5t22.5 -151t61.5 -118t92.5 -76.5t116.5 -27.5q57 0 106.5 13t100.5 46 l-25 -121q-31 -20 -72.5 -30.5t-88.5 -14.5v-168h-78v172q-76 8 -140.5 45t-112.5 98.5t-76 145.5t-28 187z" />
<glyph unicode="&#xa3;" horiz-adv-x="720" d="M37 608v80h119v209q0 215 87 320.5t242 105.5q37 0 71 -8t56 -23l-18 -104q-47 31 -117 31q-96 0 -148.5 -79t-52.5 -220v-232h252l-10 -80h-242v-121q0 -139 -16 -233t-43 -150q35 10 86 15.5t100 5.5q63 0 132 -8t129 -31l-15 -104q-53 20 -118.5 30.5t-131.5 10.5 q-72 0 -138 -11.5t-109 -25.5l-86 49q47 86 68.5 195.5t21.5 263.5v114h-119z" />
<glyph unicode="&#xa4;" horiz-adv-x="827" d="M78 899l59 57q31 -33 53 -59q20 -23 37 -44.5t21 -27.5q72 68 166 68q47 0 88 -17.5t76 -46.5l108 129l59 -55l-112 -139q27 -41 42 -91t15 -106q0 -57 -16.5 -108t-42.5 -94l114 -140l-61 -53l-111 129q-35 -29 -74.5 -44t-84.5 -15q-47 0 -87 17t-75 46l-113 -133 l-59 57l115 142q-27 41 -41.5 92t-14.5 104t14.5 101.5t39.5 87.5zM219 567q0 -51 15.5 -96t41 -79t61.5 -53.5t77 -19.5t76.5 19.5t63.5 53.5t43 79t15 96q0 49 -15 94.5t-43 79t-63.5 53t-76.5 19.5t-77 -19.5t-61.5 -53t-41 -79t-15.5 -94.5z" />
<glyph unicode="&#xa5;" horiz-adv-x="944" d="M23 1307h135l211 -392q29 -51 56.5 -101t49.5 -97h4q23 47 51.5 99t53.5 99l213 392h125l-297 -543h153v-80h-198l-48 -90v-27h246v-82h-246v-485h-122v485h-250v82h250v25l-45 92h-205v80h155z" />
<glyph unicode="&#xa6;" horiz-adv-x="366" d="M131 367h102v-799h-102v799zM131 610v799h102v-799h-102z" />
<glyph unicode="&#xa7;" horiz-adv-x="753" d="M94 1024q0 59 19.5 113.5t57.5 95.5t94.5 65.5t129.5 24.5q76 0 132.5 -18.5t93.5 -44.5l-21 -113q-35 29 -87 48t-112 19q-96 0 -142 -56t-46 -132q0 -43 12.5 -86t34.5 -78l404 -500l-62 -264q29 -45 46.5 -102t17.5 -123q0 -59 -19.5 -112.5t-57.5 -95.5t-94.5 -66.5 t-129.5 -24.5q-78 0 -133.5 19.5t-92.5 46.5l21 112q37 -29 87 -48t109 -19q98 0 144.5 56t46.5 132q0 41 -9.5 83t-37.5 81l-402 498l60 266q-63 88 -64 223zM182 588l357 -438l39 163l-359 437z" />
<glyph unicode="&#xa8;" d="M113 1130q0 12 8 31t19.5 34t24.5 26.5t23 11.5t23.5 -11.5t25 -26.5t19.5 -34t8 -31t-8 -29.5t-19.5 -32.5t-24.5 -25.5t-24 -10.5q-10 0 -23 10.5t-24.5 25.5t-19.5 32.5t-8 29.5zM358 1130q0 12 8.5 31t19.5 34t24.5 26.5t23.5 11.5t22.5 -11.5t24 -26.5t19.5 -34 t8 -31t-8 -29.5t-19.5 -32.5t-24 -25.5t-22.5 -10.5t-23.5 10.5t-24.5 25.5t-19.5 32.5t-8.5 29.5z" />
<glyph unicode="&#xa9;" horiz-adv-x="1036" d="M63 512q0 117 35 215t95.5 168t143.5 108.5t179 38.5q98 0 181 -38.5t144.5 -108.5t96.5 -168t35 -215t-35 -215t-96.5 -169t-144.5 -109.5t-181 -38.5q-96 0 -179 38.5t-143.5 109.5t-95.5 169t-35 215zM139 512q0 -100 28 -185t78 -146.5t119.5 -96.5t151.5 -35 t151.5 35t120 96.5t79 146.5t28.5 185t-28.5 185t-79 146.5t-120 95.5t-151.5 34t-151.5 -34t-119.5 -95.5t-78 -146.5t-28 -185zM303 508q0 68 19.5 121t52.5 92t78 59.5t94 20.5q47 0 84 -13.5t61 -31.5l-14 -82q-25 18 -55.5 29.5t-67.5 11.5q-66 0 -111 -57.5 t-45 -149.5q0 -94 45 -152.5t111 -58.5q35 0 65.5 10t65.5 37l-20 -98q-20 -16 -52 -25.5t-67 -9.5q-49 0 -94 21.5t-78 59.5t-52.5 93t-19.5 123z" />
<glyph unicode="&#xaa;" horiz-adv-x="616" d="M61 774q0 104 61.5 164.5t143.5 69.5l144 14v68q0 68 -35 106.5t-101 38.5q-43 0 -85 -17.5t-70 -39.5l-21 92q35 29 82 42t101 13q104 0 170.5 -63.5t66.5 -180.5v-338q0 -55 23.5 -81.5t58.5 -34.5l-65 -70q-35 6 -62 30.5t-37 59.5q-23 -41 -72 -65.5t-102 -24.5 q-90 0 -145.5 59.5t-55.5 157.5zM160 768q0 -57 31.5 -92t76.5 -35q51 0 96.5 46t45.5 124v125l-131 -14q-49 -6 -84 -47t-35 -107zM244 313q0 12 8 29.5t19.5 33t23.5 27t22 11.5t22.5 -11.5t24 -27t18.5 -33t7 -29.5t-7 -29.5t-18.5 -32.5t-23.5 -26.5t-23 -11.5 q-10 0 -22 11.5t-23.5 26.5t-19.5 32.5t-8 29.5z" />
<glyph unicode="&#xab;" horiz-adv-x="722" d="M10 567q88 63 162 151.5t121 180.5l63 -65q-33 -78 -85 -149t-107 -118q55 -47 107.5 -117.5t84.5 -148.5l-63 -65q-47 92 -121 182t-162 149zM332 567q90 63 163.5 151.5t120.5 180.5l64 -65q-33 -78 -84 -149t-109 -118q57 -47 108.5 -117.5t84.5 -148.5l-64 -65 q-47 92 -120.5 182t-163.5 149z" />
<glyph unicode="&#xac;" horiz-adv-x="851" d="M74 516v102h674v-301h-107v199h-567z" />
<glyph unicode="&#xad;" horiz-adv-x="727" d="M88 518v92h551v-92h-551z" />
<glyph unicode="&#xae;" horiz-adv-x="780" d="M63 954q0 82 26 149.5t70 117t103.5 77t126.5 27.5q70 0 130.5 -27.5t104.5 -77t68.5 -117t24.5 -149.5t-24.5 -150.5t-68.5 -118.5t-104.5 -77.5t-130.5 -27.5q-68 0 -127 27.5t-103 77.5t-70 118.5t-26 150.5zM125 954q0 -72 19.5 -130t55.5 -99t84 -64.5t105 -23.5 t106.5 23.5t84 64.5t55 99t20.5 130q0 70 -20.5 127.5t-55 98.5t-84 64.5t-106.5 23.5t-105 -23.5t-84 -64.5t-55.5 -98.5t-19.5 -127.5zM281 719v469h112q51 0 88 -37t37 -96q0 -41 -17.5 -73t-45.5 -48l100 -176l-53 -43l-111 203h-47v-199h-63zM344 979h43 q31 0 48.5 20.5t17.5 55.5q0 33 -17.5 53t-48.5 20h-43v-149z" />
<glyph unicode="&#xaf;" d="M152 1055v98h317v-98h-317z" />
<glyph unicode="&#xb0;" horiz-adv-x="444" d="M53 1143q0 78 49.5 131t118.5 53q72 0 121 -53t49 -131q0 -76 -49 -129t-121 -53q-70 0 -119 53t-49 129zM125 1143q0 -49 27.5 -82t68.5 -33q43 0 70.5 33t27.5 82q0 51 -27.5 84t-70.5 33q-41 0 -68.5 -33t-27.5 -84z" />
<glyph unicode="&#xb1;" horiz-adv-x="1443" d="M31 827v101h121v59q0 199 88 301.5t237 102.5q53 0 91 -11.5t67 -27.5l-19 -105q-23 16 -59.5 28.5t-81.5 12.5q-92 0 -147.5 -76.5t-55.5 -205.5v-78h390v53q0 100 26.5 181t75.5 138.5t117.5 87t152.5 29.5q150 0 236 -69v-1131q0 -66 27.5 -104.5t70.5 -53.5l-76 -82 q-53 16 -98 70.5t-45 159.5v1081q-43 27 -127 27q-104 0 -173 -85t-69 -231v-71h185l-21 -101h-164v-827h-118v827h-390v-827h-120v827h-121z" />
<glyph unicode="&#xb2;" horiz-adv-x="577" d="M55 504v24q166 172 245 314.5t79 232.5q0 92 -41 133t-111 41q-43 0 -78.5 -14t-64.5 -37l-16 78q27 20 68.5 34.5t92.5 14.5q113 0 175.5 -63.5t62.5 -184.5q0 -49 -18.5 -109.5t-51 -126t-80 -132t-104.5 -129.5h285v-76h-443z" />
<glyph unicode="&#xb3;" horiz-adv-x="528" d="M59 625q35 -31 76 -43.5t72 -12.5q66 0 112 48.5t46 140.5q0 68 -38 115t-91 47q-23 0 -41 -7l-15 76q59 16 96 58.5t37 87.5q0 49 -27.5 81.5t-76.5 32.5q-29 0 -58.5 -10t-56.5 -27l-16 78q29 16 62.5 25.5t72.5 9.5q86 0 137 -51t51 -137q0 -51 -22.5 -93.5 t-63.5 -64.5q53 -16 96.5 -76.5t43.5 -144.5q0 -117 -63.5 -190.5t-180.5 -73.5q-37 0 -72 10t-59 28z" />
<glyph unicode="&#xb4;" d="M131 1094q90 31 178 87t148 134l24 -115q-61 -68 -135 -106.5t-151 -61.5z" />
<glyph unicode="&#xb5;" horiz-adv-x="976" d="M72 0v928h833v-928h-833zM123 49h338q-45 18 -67.5 47t-39.5 64l-231 594v-705zM166 801l434 -416q-78 -31 -120 -84t-42 -102q0 -57 25.5 -92t66.5 -58h324v752h-688z" />
<glyph unicode="&#xb6;" horiz-adv-x="704" d="M76 983q0 82 26.5 143.5t70.5 102.5t100.5 62.5t115.5 21.5h260v-103h-117v-1278q0 -147 -62 -242.5t-155 -125.5l-71 80q84 27 126 98.5t42 200.5v712h-25q-59 0 -115.5 20.5t-99.5 62.5t-69.5 103.5t-26.5 141.5z" />
<glyph unicode="&#xb7;" horiz-adv-x="333" d="M78 555q0 12 9 31.5t22.5 37t28 30t26.5 12.5t27.5 -12.5t28.5 -30t22.5 -37t9.5 -31.5q0 -14 -9.5 -33.5t-22.5 -37t-28.5 -30t-27.5 -12.5t-26.5 12.5t-28 30t-22.5 37t-9 33.5z" />
<glyph unicode="&#xb8;" d="M176 -387l12 74q27 -23 51.5 -32t53.5 -9q35 0 64.5 27.5t29.5 80.5q0 57 -30.5 84t-67.5 27q-10 0 -19.5 1t-19.5 -3l31 141h57l-14 -65q27 -4 52 -16.5t46.5 -35t35 -55.5t13.5 -74q0 -47 -16.5 -82.5t-41 -58.5t-56 -34t-62.5 -11q-66 0 -119 41z" />
<glyph unicode="&#xb9;" horiz-adv-x="428" d="M66 1225l18 80l201 20v-821h-88v733z" />
<glyph unicode="&#xba;" horiz-adv-x="757" d="M61 940q0 84 24 154.5t66 122t100 80t128 28.5t127 -28.5t99 -80t65.5 -122t23.5 -154.5t-23.5 -154.5t-65.5 -121t-99 -79t-127 -28.5t-128 28.5t-100 79t-66 121t-24 154.5zM168 940q0 -131 60.5 -213t150.5 -82t149.5 82t59.5 213t-59.5 213t-149.5 82t-150.5 -82 t-60.5 -213zM305 313q0 12 8.5 29.5t19.5 33t24.5 27t23.5 11.5t22.5 -11.5t23.5 -27t18.5 -33t7.5 -29.5t-7.5 -29.5t-18.5 -32.5t-23.5 -26.5t-22.5 -11.5t-23.5 11.5t-24.5 26.5t-19.5 32.5t-8.5 29.5z" />
<glyph unicode="&#xbb;" horiz-adv-x="722" d="M43 301q33 78 84 148.5t111 117.5q-59 47 -110.5 118t-84.5 149l66 65q45 -92 118.5 -180.5t163.5 -151.5q-90 -59 -163.5 -149t-118.5 -182zM367 301q33 78 85 148.5t107 117.5q-55 47 -107.5 118t-84.5 149l63 65q47 -92 122 -180.5t163 -151.5q-88 -59 -163 -149 t-122 -182z" />
<glyph unicode="&#xbc;" horiz-adv-x="1216" d="M66 1225l18 80l201 20v-821h-88v733zM129 12l827 1317l58 -37l-828 -1315zM643 309l311 504h82v-502h88v-78h-88v-233h-88v233h-286zM737 311h211v244q0 59 6 121l-4 2q-29 -59 -67 -125z" />
<glyph unicode="&#xbd;" horiz-adv-x="1312" d="M66 1225l18 80l201 20v-821h-88v733zM129 14l827 1315l58 -37l-828 -1315zM788 0v23q166 174 245 316t79 234q0 88 -41 130t-110 42q-43 0 -79 -14t-65 -37l-18 76q29 23 70.5 37t93.5 14q113 0 174 -63.5t61 -186.5q0 -49 -17.5 -108.5t-50 -124t-78.5 -132t-104 -130.5 h283v-76h-443z" />
<glyph unicode="&#xbe;" horiz-adv-x="1284" d="M59 625q35 -31 76 -43.5t72 -12.5q66 0 112 48.5t46 140.5q0 68 -38 115t-91 47q-23 0 -41 -7l-15 76q59 16 96 58.5t37 87.5q0 49 -27.5 81.5t-76.5 32.5q-29 0 -58.5 -10t-56.5 -27l-16 78q29 16 62.5 25.5t72.5 9.5q86 0 137 -51t51 -137q0 -51 -22.5 -93.5 t-63.5 -64.5q53 -16 96.5 -76.5t43.5 -144.5q0 -117 -63.5 -190.5t-180.5 -73.5q-37 0 -72 10t-59 28zM211 12l829 1317l58 -37l-828 -1315zM727 309l311 504h82v-502h86v-78h-86v-233h-88v233h-289zM819 311h213v244q0 59 6 121l-4 2q-29 -59 -67 -125z" />
<glyph unicode="&#xbf;" horiz-adv-x="653" d="M70 256q0 102 47 186t112 168q92 117 93 264q0 33 -2.5 67t-8.5 60l105 -28q4 -25 9 -54.5t5 -60.5q0 -96 -29.5 -177t-81.5 -146q-53 -72 -88.5 -135.5t-35.5 -149.5q0 -92 51 -154.5t141 -62.5q66 0 115 25.5t84 64.5l20 -113q-35 -35 -90 -60.5t-133 -25.5 q-137 0 -225 88t-88 244zM270 1212q0 14 9.5 34t22.5 37t28.5 29.5t27.5 12.5t26.5 -12.5t28 -29.5t22.5 -37t9 -34t-9 -33.5t-22.5 -37t-27.5 -29.5t-27 -12q-12 0 -27.5 12t-28.5 29.5t-22.5 37t-9.5 33.5z" />
<glyph unicode="&#xc0;" horiz-adv-x="985" d="M45 0l418 1325h59l420 -1325h-127l-115 371h-419l-115 -371h-121zM252 1610l25 115q59 -78 147 -134.5t178 -86.5l-63 -62q-78 23 -151.5 62t-135.5 106zM313 473h353l-119 393q-16 45 -29.5 94.5t-23.5 102.5h-5q-12 -53 -26 -103.5t-29 -93.5z" />
<glyph unicode="&#xc1;" horiz-adv-x="985" d="M45 0l418 1325h59l420 -1325h-127l-115 371h-419l-115 -371h-121zM313 473h353l-119 393q-16 45 -29.5 94.5t-23.5 102.5h-5q-12 -53 -26 -103.5t-29 -93.5zM377 1504q90 31 178 87t148 134l24 -115q-61 -68 -135 -106.5t-151 -61.5z" />
<glyph unicode="&#xc2;" horiz-adv-x="985" d="M45 0l418 1325h59l420 -1325h-127l-115 371h-419l-115 -371h-121zM266 1502q68 35 126 98t101 135q41 -72 99.5 -134.5t126.5 -98.5l-60 -60q-49 27 -90 59.5t-76 79.5q-35 -47 -76.5 -79.5t-93.5 -59.5zM313 473h353l-119 393q-16 45 -29.5 94.5t-23.5 102.5h-5 q-12 -53 -26 -103.5t-29 -93.5z" />
<glyph unicode="&#xc3;" horiz-adv-x="985" d="M45 0l418 1325h59l420 -1325h-127l-115 371h-419l-115 -371h-121zM246 1461l18 100q49 39 111.5 66.5t126.5 31.5l28 -110q49 4 102.5 31.5t96.5 62.5l-18 -100q-47 -41 -110 -68t-128 -31l-27 111q-49 -4 -103 -32t-97 -62zM313 473h353l-119 393q-16 45 -29.5 94.5 t-23.5 102.5h-5q-12 -53 -26 -103.5t-29 -93.5z" />
<glyph unicode="&#xc4;" horiz-adv-x="985" d="M45 0l418 1325h59l420 -1325h-127l-115 371h-419l-115 -371h-121zM297 1540q0 12 8 31t19.5 34t24.5 26.5t23 11.5t23.5 -11.5t25 -26.5t19.5 -34t8 -31t-8 -29.5t-19.5 -32.5t-24.5 -25.5t-24 -10.5q-10 0 -23 10.5t-24.5 25.5t-19.5 32.5t-8 29.5zM313 473h353 l-119 393q-16 45 -29.5 94.5t-23.5 102.5h-5q-12 -53 -26 -103.5t-29 -93.5zM542 1540q0 12 8.5 31t19.5 34t24.5 26.5t23.5 11.5t22.5 -11.5t24 -26.5t19.5 -34t8 -31t-8 -29.5t-19.5 -32.5t-24 -25.5t-22.5 -10.5t-23.5 10.5t-24.5 25.5t-19.5 32.5t-8.5 29.5z" />
<glyph unicode="&#xc5;" horiz-adv-x="985" d="M45 0l418 1325h59l420 -1325h-127l-115 371h-419l-115 -371h-121zM313 473h353l-119 393q-16 45 -29.5 94.5t-23.5 102.5h-5q-12 -53 -26 -103.5t-29 -93.5zM315 1612q0 80 52.5 136.5t125.5 56.5q37 0 69 -15.5t55.5 -41t37.5 -61.5t14 -75q0 -41 -14 -75.5t-37.5 -60.5 t-55.5 -41t-69 -15q-74 0 -126 56t-52 136zM393 1612q0 -49 28.5 -84t71.5 -35q41 0 71 35t30 84q0 51 -30 85t-71 34q-43 0 -71.5 -34t-28.5 -85z" />
<glyph unicode="&#xc6;" horiz-adv-x="1325" d="M31 0l604 1307h606v-111h-428v-483h352v-111h-352v-491h483v-111h-610v379h-354l-174 -379h-127zM379 481h307v469q0 61 1 118.5t3 117.5l-4 2q-23 -59 -47.5 -121.5t-48.5 -118.5z" />
<glyph unicode="&#xc7;" horiz-adv-x="958" d="M74 653q0 154 44 279t117.5 212t172 134t206.5 47q98 0 172 -21.5t123 -54.5l-20 -112q-41 31 -109.5 54t-148.5 23q-88 0 -166 -39.5t-136.5 -113.5t-92 -177.5t-33.5 -230.5t33.5 -230.5t91 -176t135.5 -112.5t168 -40q86 0 155.5 20.5t120.5 57.5l-24 -131 q-47 -29 -108.5 -43t-153.5 -16l-9 -43q25 -4 51.5 -16.5t48 -35t35 -55.5t13.5 -74q0 -47 -16.5 -82.5t-42 -58.5t-57.5 -34t-62 -11q-61 0 -119 41l14 74q27 -23 50.5 -32t52.5 -9q37 0 66.5 27.5t29.5 80.5q0 57 -31 84t-70 27q-10 0 -18 1t-18 -3l24 121 q-102 12 -191 64t-154.5 139t-104.5 205t-39 261z" />
<glyph unicode="&#xc8;" horiz-adv-x="759" d="M115 0v1307h555v-111h-428v-483h352v-111h-352v-491h483v-111h-610zM166 1610l25 115q59 -78 147 -134.5t178 -86.5l-63 -62q-78 23 -151.5 62t-135.5 106z" />
<glyph unicode="&#xc9;" horiz-adv-x="759" d="M115 0v1307h555v-111h-428v-483h352v-111h-352v-491h483v-111h-610zM291 1504q90 31 178 87t148 134l24 -115q-61 -68 -135 -106.5t-151 -61.5z" />
<glyph unicode="&#xca;" horiz-adv-x="759" d="M115 0v1307h555v-111h-428v-483h352v-111h-352v-491h483v-111h-610zM178 1502q68 35 126 98t101 135q41 -72 99.5 -134.5t126.5 -98.5l-60 -60q-49 27 -90 59.5t-76 79.5q-35 -47 -76.5 -79.5t-93.5 -59.5z" />
<glyph unicode="&#xcb;" horiz-adv-x="759" d="M115 0v1307h555v-111h-428v-483h352v-111h-352v-491h483v-111h-610zM209 1540q0 12 8 31t19.5 34t24.5 26.5t23 11.5t23.5 -11.5t25 -26.5t19.5 -34t8 -31t-8 -29.5t-19.5 -32.5t-24.5 -25.5t-24 -10.5q-10 0 -23 10.5t-24.5 25.5t-19.5 32.5t-8 29.5zM454 1540 q0 12 8.5 31t19.5 34t24.5 26.5t23.5 11.5t22.5 -11.5t24 -26.5t19.5 -34t8 -31t-8 -29.5t-19.5 -32.5t-24 -25.5t-22.5 -10.5t-23.5 10.5t-24.5 25.5t-19.5 32.5t-8.5 29.5z" />
<glyph unicode="&#xcc;" horiz-adv-x="409" d="M2 1610l25 115q59 -78 147 -134.5t178 -86.5l-63 -62q-78 23 -151.5 62t-135.5 106zM141 0v1307h127v-1307h-127z" />
<glyph unicode="&#xcd;" horiz-adv-x="409" d="M61 1504q90 31 178 87t148 134l24 -115q-61 -68 -135 -106.5t-151 -61.5zM141 0v1307h127v-1307h-127z" />
<glyph unicode="&#xce;" horiz-adv-x="409" d="M-18 1502q68 35 126 98t101 135q41 -72 99.5 -134.5t126.5 -98.5l-60 -60q-49 27 -90 59.5t-76 79.5q-35 -47 -76.5 -79.5t-93.5 -59.5zM141 0v1307h127v-1307h-127z" />
<glyph unicode="&#xcf;" horiz-adv-x="409" d="M11 1540q0 12 8 31t19.5 34t24.5 26.5t23 11.5t23.5 -11.5t25 -26.5t19.5 -34t8 -31t-8 -29.5t-19.5 -32.5t-24.5 -25.5t-24 -10.5q-10 0 -23 10.5t-24.5 25.5t-19.5 32.5t-8 29.5zM141 0v1307h127v-1307h-127zM256 1540q0 12 8.5 31t19.5 34t24.5 26.5t23.5 11.5 t22.5 -11.5t24 -26.5t19.5 -34t8 -31t-8 -29.5t-19.5 -32.5t-24 -25.5t-22.5 -10.5t-23.5 10.5t-24.5 25.5t-19.5 32.5t-8.5 29.5z" />
<glyph unicode="&#xd0;" horiz-adv-x="1062" d="M0 612v99h137v596h275q119 0 223 -40t182 -121t123 -204t45 -289t-45 -288.5t-123 -203.5t-182.5 -121t-222.5 -40h-275v612h-137zM264 111h131q98 0 183.5 32.5t147.5 99t97 169t35 241.5t-35 241.5t-97 169t-147 99.5t-184 33h-131v-485h219l-18 -99h-201v-501z" />
<glyph unicode="&#xd1;" horiz-adv-x="1126" d="M115 0v1307h92l459 -680q27 -39 55.5 -83t58 -89t57 -89t52.5 -83l4 2q-4 86 -4 174v166v682h123v-1327h-49l-486 710q-59 88 -123.5 184.5t-115.5 178.5l-5 -2q4 -88 5.5 -178.5t1.5 -174.5v-698h-125zM322 1461l18 100q49 39 111.5 66.5t126.5 31.5l28 -110 q49 4 102.5 31.5t96.5 62.5l-18 -100q-47 -41 -110 -68t-128 -31l-27 111q-49 -4 -103 -32t-97 -62z" />
<glyph unicode="&#xd2;" horiz-adv-x="1214" d="M74 655q0 150 41 273t113.5 211t170 137t207.5 49q111 0 209 -49t170 -137t114 -211t42 -273q0 -152 -42 -275.5t-114 -211.5t-170 -137t-209 -49t-208 49t-169.5 137t-113.5 212t-41 275zM203 655q0 -125 32.5 -228t88 -177t128 -115t154.5 -41t156 41t129 115t88 177 t33 228t-33 227.5t-88 176.5t-129 114.5t-156 40.5t-154.5 -40.5t-128 -114.5t-88 -176.5t-32.5 -227.5zM352 1610l25 115q59 -78 147 -134.5t178 -86.5l-63 -62q-78 23 -151.5 62t-135.5 106z" />
<glyph unicode="&#xd3;" horiz-adv-x="1214" d="M74 655q0 150 41 273t113.5 211t170 137t207.5 49q111 0 209 -49t170 -137t114 -211t42 -273q0 -152 -42 -275.5t-114 -211.5t-170 -137t-209 -49t-208 49t-169.5 137t-113.5 212t-41 275zM203 655q0 -125 32.5 -228t88 -177t128 -115t154.5 -41t156 41t129 115t88 177 t33 228t-33 227.5t-88 176.5t-129 114.5t-156 40.5t-154.5 -40.5t-128 -114.5t-88 -176.5t-32.5 -227.5zM491 1504q90 31 178 87t148 134l24 -115q-61 -68 -135 -106.5t-151 -61.5z" />
<glyph unicode="&#xd4;" horiz-adv-x="1214" d="M74 655q0 150 41 273t113.5 211t170 137t207.5 49q111 0 209 -49t170 -137t114 -211t42 -273q0 -152 -42 -275.5t-114 -211.5t-170 -137t-209 -49t-208 49t-169.5 137t-113.5 212t-41 275zM203 655q0 -125 32.5 -228t88 -177t128 -115t154.5 -41t156 41t129 115t88 177 t33 228t-33 227.5t-88 176.5t-129 114.5t-156 40.5t-154.5 -40.5t-128 -114.5t-88 -176.5t-32.5 -227.5zM379 1502q68 35 126 98t101 135q41 -72 99.5 -134.5t126.5 -98.5l-60 -60q-49 27 -90 59.5t-76 79.5q-35 -47 -76.5 -79.5t-93.5 -59.5z" />
<glyph unicode="&#xd5;" horiz-adv-x="1214" d="M74 655q0 150 41 273t113.5 211t170 137t207.5 49q111 0 209 -49t170 -137t114 -211t42 -273q0 -152 -42 -275.5t-114 -211.5t-170 -137t-209 -49t-208 49t-169.5 137t-113.5 212t-41 275zM203 655q0 -125 32.5 -228t88 -177t128 -115t154.5 -41t156 41t129 115t88 177 t33 228t-33 227.5t-88 176.5t-129 114.5t-156 40.5t-154.5 -40.5t-128 -114.5t-88 -176.5t-32.5 -227.5zM359 1461l18 100q49 39 111.5 66.5t126.5 31.5l28 -110q49 4 102.5 31.5t96.5 62.5l-18 -100q-47 -41 -110 -68t-128 -31l-27 111q-49 -4 -103 -32t-97 -62z" />
<glyph unicode="&#xd6;" horiz-adv-x="1214" d="M74 655q0 150 41 273t113.5 211t170 137t207.5 49q111 0 209 -49t170 -137t114 -211t42 -273q0 -152 -42 -275.5t-114 -211.5t-170 -137t-209 -49t-208 49t-169.5 137t-113.5 212t-41 275zM203 655q0 -125 32.5 -228t88 -177t128 -115t154.5 -41t156 41t129 115t88 177 t33 228t-33 227.5t-88 176.5t-129 114.5t-156 40.5t-154.5 -40.5t-128 -114.5t-88 -176.5t-32.5 -227.5zM406 1540q0 12 8 31t19.5 34t24.5 26.5t23 11.5t23.5 -11.5t25 -26.5t19.5 -34t8 -31t-8 -29.5t-19.5 -32.5t-24.5 -25.5t-24 -10.5q-10 0 -23 10.5t-24.5 25.5 t-19.5 32.5t-8 29.5zM651 1540q0 12 8.5 31t19.5 34t24.5 26.5t23.5 11.5t22.5 -11.5t24 -26.5t19.5 -34t8 -31t-8 -29.5t-19.5 -32.5t-24 -25.5t-22.5 -10.5t-23.5 10.5t-24.5 25.5t-19.5 32.5t-8.5 29.5z" />
<glyph unicode="&#xd7;" horiz-adv-x="778" d="M125 307l209 252l-207 252l63 57l201 -241l201 239l63 -57q-57 -72 -102 -125q-20 -25 -37.5 -47.5t-34.5 -38.5q-18 -20 -32 -39l206 -250l-63 -57l-201 237q-16 -16 -33 -36q-14 -16 -31.5 -38t-35.5 -44q-45 -53 -101 -121z" />
<glyph unicode="&#xd8;" horiz-adv-x="1214" d="M74 655q0 150 41 273t113.5 211t170 137t207.5 49q86 0 164 -29.5t143 -83.5l88 142l60 -43l-94 -152q80 -90 127 -217t47 -287q0 -152 -42 -275.5t-114 -211.5t-170 -137t-209 -49q-170 0 -303 110l-88 -139l-61 43l94 149q-80 90 -127 220.5t-47 289.5zM201 655 q0 -123 30.5 -224t83.5 -175l533 852q-51 51 -112.5 78.5t-129.5 27.5q-82 0 -155.5 -40.5t-129 -114.5t-88 -176.5t-32.5 -227.5zM367 197q104 -104 239 -105q82 0 156 41t130 116t89 178t33 228q0 121 -31 221.5t-84 172.5z" />
<glyph unicode="&#xd9;" horiz-adv-x="1044" d="M115 375v932h127v-922q0 -137 73.5 -214t208.5 -77t209 77t74 214v922h123v-932q0 -92 -30 -166t-83 -124t-128 -76.5t-167 -26.5t-166.5 26.5t-128 76.5t-83 124t-29.5 166zM272 1610l25 115q59 -78 147 -134.5t178 -86.5l-63 -62q-78 23 -151.5 62t-135.5 106z" />
<glyph unicode="&#xda;" horiz-adv-x="1044" d="M115 375v932h127v-922q0 -137 73.5 -214t208.5 -77t209 77t74 214v922h123v-932q0 -92 -30 -166t-83 -124t-128 -76.5t-167 -26.5t-166.5 26.5t-128 76.5t-83 124t-29.5 166zM418 1504q90 31 178 87t148 134l24 -115q-61 -68 -135 -106.5t-151 -61.5z" />
<glyph unicode="&#xdb;" horiz-adv-x="1044" d="M115 375v932h127v-922q0 -137 73.5 -214t208.5 -77t209 77t74 214v922h123v-932q0 -92 -30 -166t-83 -124t-128 -76.5t-167 -26.5t-166.5 26.5t-128 76.5t-83 124t-29.5 166zM297 1502q68 35 126 98t101 135q41 -72 99.5 -134.5t126.5 -98.5l-60 -60q-49 27 -90 59.5 t-76 79.5q-35 -47 -76.5 -79.5t-93.5 -59.5z" />
<glyph unicode="&#xdc;" horiz-adv-x="1044" d="M115 375v932h127v-922q0 -137 73.5 -214t208.5 -77t209 77t74 214v922h123v-932q0 -92 -30 -166t-83 -124t-128 -76.5t-167 -26.5t-166.5 26.5t-128 76.5t-83 124t-29.5 166zM328 1540q0 12 8 31t19.5 34t24.5 26.5t23 11.5t23.5 -11.5t25 -26.5t19.5 -34t8 -31t-8 -29.5 t-19.5 -32.5t-24.5 -25.5t-24 -10.5q-10 0 -23 10.5t-24.5 25.5t-19.5 32.5t-8 29.5zM573 1540q0 12 8.5 31t19.5 34t24.5 26.5t23.5 11.5t22.5 -11.5t24 -26.5t19.5 -34t8 -31t-8 -29.5t-19.5 -32.5t-24 -25.5t-22.5 -10.5t-23.5 10.5t-24.5 25.5t-19.5 32.5t-8.5 29.5z " />
<glyph unicode="&#xdd;" horiz-adv-x="946" d="M23 1307h135l211 -392q29 -51 56.5 -101t49.5 -97h4q23 47 51.5 99t53.5 99l213 392h127l-389 -713v-594h-125v592zM362 1504q90 31 178 87t148 134l24 -115q-61 -68 -135 -106.5t-151 -61.5z" />
<glyph unicode="&#xde;" horiz-adv-x="761" d="M115 0v1311h127v-156h168q66 0 124 -25.5t102 -71.5t69.5 -110.5t25.5 -144.5t-25.5 -145.5t-68.5 -111.5t-100.5 -70.5t-120.5 -24.5h-174v-451h-127zM242 561h155q86 0 146.5 64.5t60.5 177.5t-61.5 178.5t-151.5 65.5h-149v-486z" />
<glyph unicode="&#xdf;" horiz-adv-x="888" d="M115 0v981q0 213 80.5 324.5t228.5 111.5q70 0 127 -28.5t96 -80t60.5 -123t21.5 -157.5q0 -41 -8 -89t-19 -83q-109 0 -166 -35t-57 -100q0 -59 33 -99t96 -79q111 -72 169.5 -143t58.5 -171q0 -111 -73 -178t-196 -67q-72 0 -126 19.5t-87 45.5v119q39 -33 89.5 -57.5 t117.5 -24.5q66 0 110 37t44 100q0 59 -37 106.5t-103 92.5q-106 68 -159.5 133.5t-53.5 161.5q0 98 66 158.5t168 66.5q6 20 10 47t4 49q0 49 -11 99.5t-34.5 89.5t-58.5 63.5t-82 24.5q-49 0 -85 -24.5t-59.5 -67.5t-35 -100.5t-11.5 -123.5v-999h-118z" />
<glyph unicode="&#xe0;" horiz-adv-x="755" d="M61 250q0 68 21.5 120t57.5 89t82 57.5t97 24.5l183 18v92q0 90 -46 140.5t-132 50.5q-53 0 -105.5 -19.5t-87.5 -48.5l-20 105q41 31 98 48t123 17q129 0 209 -78t80 -225v-428q0 -72 30.5 -105.5t69.5 -44.5l-72 -81q-41 10 -76.5 43.5t-44.5 83.5q-29 -57 -88 -91 t-131 -34q-111 0 -179.5 73.5t-68.5 192.5zM139 1208l23 97q51 -66 125.5 -113t150.5 -74l-55 -53q-66 20 -128 53t-116 90zM176 250q0 -72 41 -119t98 -47q33 0 67 16.5t60.5 45t43 68.5t16.5 87v158l-166 -17q-72 -6 -116 -57t-44 -135z" />
<glyph unicode="&#xe1;" horiz-adv-x="755" d="M61 250q0 68 21.5 120t57.5 89t82 57.5t97 24.5l183 18v92q0 90 -46 140.5t-132 50.5q-53 0 -105.5 -19.5t-87.5 -48.5l-20 105q41 31 98 48t123 17q129 0 209 -78t80 -225v-428q0 -72 30.5 -105.5t69.5 -44.5l-72 -81q-41 10 -76.5 43.5t-44.5 83.5q-29 -57 -88 -91 t-131 -34q-111 0 -179.5 73.5t-68.5 192.5zM176 250q0 -72 41 -119t98 -47q33 0 67 16.5t60.5 45t43 68.5t16.5 87v158l-166 -17q-72 -6 -116 -57t-44 -135zM225 1118q76 27 151 74t126 115l20 -99q-53 -57 -115.5 -90t-127.5 -53z" />
<glyph unicode="&#xe2;" horiz-adv-x="755" d="M61 250q0 68 21.5 120t57.5 89t82 57.5t97 24.5l183 18v92q0 90 -46 140.5t-132 50.5q-53 0 -105.5 -19.5t-87.5 -48.5l-20 105q41 31 98 48t123 17q129 0 209 -78t80 -225v-428q0 -72 30.5 -105.5t69.5 -44.5l-72 -81q-41 10 -76.5 43.5t-44.5 83.5q-29 -57 -88 -91 t-131 -34q-111 0 -179.5 73.5t-68.5 192.5zM152 1116q57 31 107 84t85 115q35 -61 84 -114.5t109 -84.5l-52 -51q-41 23 -76.5 50.5t-64.5 68.5q-29 -41 -64.5 -69t-78.5 -50zM176 250q0 -72 41 -119t98 -47q33 0 67 16.5t60.5 45t43 68.5t16.5 87v158l-166 -17 q-72 -6 -116 -57t-44 -135z" />
<glyph unicode="&#xe3;" horiz-adv-x="755" d="M61 250q0 68 21.5 120t57.5 89t82 57.5t97 24.5l183 18v92q0 90 -46 140.5t-132 50.5q-53 0 -105.5 -19.5t-87.5 -48.5l-20 105q41 31 98 48t123 17q129 0 209 -78t80 -225v-428q0 -72 30.5 -105.5t69.5 -44.5l-72 -81q-41 10 -76.5 43.5t-44.5 83.5q-29 -57 -88 -91 t-131 -34q-111 0 -179.5 73.5t-68.5 192.5zM156 1081l14 86q43 33 96 56.5t107 25.5l24 -92q41 4 86 27.5t82 52.5l-14 -86q-41 -35 -94.5 -57.5t-108.5 -26.5l-22 94q-41 -4 -88.5 -27.5t-81.5 -52.5zM176 250q0 -72 41 -119t98 -47q33 0 67 16.5t60.5 45t43 68.5t16.5 87 v158l-166 -17q-72 -6 -116 -57t-44 -135z" />
<glyph unicode="&#xe4;" horiz-adv-x="755" d="M61 250q0 68 21.5 120t57.5 89t82 57.5t97 24.5l183 18v92q0 90 -46 140.5t-132 50.5q-53 0 -105.5 -19.5t-87.5 -48.5l-20 105q41 31 98 48t123 17q129 0 209 -78t80 -225v-428q0 -72 30.5 -105.5t69.5 -44.5l-72 -81q-41 10 -76.5 43.5t-44.5 83.5q-29 -57 -88 -91 t-131 -34q-111 0 -179.5 73.5t-68.5 192.5zM176 250q0 -72 41 -119t98 -47q33 0 67 16.5t60.5 45t43 68.5t16.5 87v158l-166 -17q-72 -6 -116 -57t-44 -135zM178 1149q0 12 7.5 26.5t17.5 29t21.5 23.5t19.5 9t19 -9t21.5 -23.5t16.5 -29t6 -26.5q0 -10 -6 -24.5t-16.5 -28 t-21.5 -22.5t-19 -9t-19.5 9t-21.5 22.5t-17.5 28t-7.5 24.5zM387 1149q0 12 7 26.5t16.5 29t20.5 23.5t22 9q8 0 19 -9t20.5 -23.5t15.5 -29t6 -26.5q0 -10 -6 -24.5t-15.5 -28t-20.5 -22.5t-19 -9q-10 0 -21.5 9t-21 22.5t-16.5 28t-7 24.5z" />
<glyph unicode="&#xe5;" horiz-adv-x="755" d="M61 250q0 68 21.5 120t57.5 89t82 57.5t97 24.5l183 18v92q0 90 -46 140.5t-132 50.5q-53 0 -105.5 -19.5t-87.5 -48.5l-20 105q41 31 98 48t123 17q129 0 209 -78t80 -225v-428q0 -72 30.5 -105.5t69.5 -44.5l-72 -81q-41 10 -76.5 43.5t-44.5 83.5q-29 -57 -88 -91 t-131 -34q-111 0 -179.5 73.5t-68.5 192.5zM176 250q0 -72 41 -119t98 -47q33 0 67 16.5t60.5 45t43 68.5t16.5 87v158l-166 -17q-72 -6 -116 -57t-44 -135zM193 1210q0 68 44 116t107 48q61 0 105.5 -48t44.5 -116t-44 -115.5t-106 -47.5q-63 0 -107 48t-44 115zM258 1210 q0 -41 24.5 -70.5t61.5 -29.5q35 0 59.5 29.5t24.5 70.5q0 43 -24.5 72t-59.5 29q-37 0 -61.5 -29t-24.5 -72z" />
<glyph unicode="&#xe6;" horiz-adv-x="1241" d="M61 250q0 135 77 206.5t188 84.5l176 16v94q0 90 -46 140.5t-132 50.5q-53 0 -105.5 -19.5t-87.5 -48.5l-20 105q41 31 98 48t123 17q92 0 161.5 -44t92.5 -130q47 84 120.5 129t155.5 45q80 0 139.5 -29.5t99.5 -78t59.5 -109.5t19.5 -127q0 -14 -1 -36.5t-5 -35.5 l-68 -67h-481q-4 -72 15 -139.5t57 -119.5t92.5 -83t121.5 -31q131 0 226 80l-27 -129q-41 -27 -92 -41t-121 -14q-104 0 -189 51t-133 143q-31 -96 -103.5 -145t-158.5 -49q-115 0 -183.5 73.5t-68.5 192.5zM176 250q0 -74 41 -120t98 -46q33 0 67 16.5t60.5 45t43 68.5 t16.5 87v154l-160 -15q-78 -8 -122 -58t-44 -132zM633 559h426q2 6 2 18.5v18.5q0 43 -12.5 87t-36 80t-60.5 58.5t-86 22.5q-45 0 -85 -23.5t-70.5 -63.5t-51 -91.5t-26.5 -106.5z" />
<glyph unicode="&#xe7;" horiz-adv-x="747" d="M63 463q0 111 31 200t85 151.5t127 96t157 33.5q72 0 129 -18.5t98 -42.5l-20 -109q-39 31 -89.5 48.5t-107.5 17.5q-61 0 -114.5 -28t-92.5 -78t-60.5 -119.5t-21.5 -151.5t22.5 -150.5t61.5 -119t92.5 -78t116.5 -27.5q57 0 106.5 14.5t100.5 47.5l-25 -121 q-37 -25 -93 -36t-105 -9l-8 -39q45 -4 86 -43t41 -111q0 -41 -13.5 -70.5t-35 -49t-48 -29t-53.5 -9.5q-59 0 -104 33l12 64q23 -18 44 -25.5t44 -7.5q31 0 56.5 23.5t25.5 70.5t-26.5 70.5t-57.5 23.5h-17.5t-17.5 -4l23 107q-74 10 -137.5 47t-110.5 98.5t-74 144 t-27 185.5z" />
<glyph unicode="&#xe8;" horiz-adv-x="802" d="M63 463q0 111 30 199t80 151.5t115.5 97t137.5 33.5q78 0 137.5 -29.5t99 -78t59 -109.5t19.5 -127v-36.5t-4 -35.5l-69 -67h-482q-4 -72 15.5 -139.5t57.5 -119.5t93.5 -83t122.5 -31q127 0 225 80l-26 -129q-41 -27 -92.5 -41t-120.5 -14q-84 0 -157 34.5t-126 98 t-84 151.5t-31 195zM193 559h430q2 6 2 18.5v18.5q0 43 -12.5 87t-37 80t-60.5 58.5t-85 22.5q-45 0 -85 -23.5t-71.5 -63.5t-53 -91.5t-27.5 -106.5zM240 1208l20 99q51 -68 126 -115t151 -74l-54 -53q-66 20 -128 53t-115 90z" />
<glyph unicode="&#xe9;" horiz-adv-x="802" d="M63 463q0 111 30 199t80 151.5t115.5 97t137.5 33.5q78 0 137.5 -29.5t99 -78t59 -109.5t19.5 -127v-36.5t-4 -35.5l-69 -67h-482q-4 -72 15.5 -139.5t57.5 -119.5t93.5 -83t122.5 -31q127 0 225 80l-26 -129q-41 -27 -92.5 -41t-120.5 -14q-84 0 -157 34.5t-126 98 t-84 151.5t-31 195zM193 559h430q2 6 2 18.5v18.5q0 43 -12.5 87t-37 80t-60.5 58.5t-85 22.5q-45 0 -85 -23.5t-71.5 -63.5t-53 -91.5t-27.5 -106.5zM328 1118q76 27 150.5 74t125.5 113l21 -97q-53 -57 -114.5 -90t-129.5 -53z" />
<glyph unicode="&#xea;" horiz-adv-x="802" d="M63 463q0 111 30 199t80 151.5t115.5 97t137.5 33.5q78 0 137.5 -29.5t99 -78t59 -109.5t19.5 -127v-36.5t-4 -35.5l-69 -67h-482q-4 -72 15.5 -139.5t57.5 -119.5t93.5 -83t122.5 -31q127 0 225 80l-26 -129q-41 -27 -92.5 -41t-120.5 -14q-84 0 -157 34.5t-126 98 t-84 151.5t-31 195zM193 559h430q2 6 2 18.5v18.5q0 43 -12.5 87t-37 80t-60.5 58.5t-85 22.5q-45 0 -85 -23.5t-71.5 -63.5t-53 -91.5t-27.5 -106.5zM240 1116q59 31 108 84t86 115q35 -61 84 -114.5t107 -84.5l-52 -51q-41 23 -75.5 50.5t-63.5 68.5q-31 -41 -66.5 -69 t-78.5 -50z" />
<glyph unicode="&#xeb;" horiz-adv-x="802" d="M63 463q0 111 30 199t80 151.5t115.5 97t137.5 33.5q78 0 137.5 -29.5t99 -78t59 -109.5t19.5 -127v-36.5t-4 -35.5l-69 -67h-482q-4 -72 15.5 -139.5t57.5 -119.5t93.5 -83t122.5 -31q127 0 225 80l-26 -129q-41 -27 -92.5 -41t-120.5 -14q-84 0 -157 34.5t-126 98 t-84 151.5t-31 195zM193 559h430q2 6 2 18.5v18.5q0 43 -12.5 87t-37 80t-60.5 58.5t-85 22.5q-45 0 -85 -23.5t-71.5 -63.5t-53 -91.5t-27.5 -106.5zM258 1149q0 12 7 26.5t17.5 29t21.5 23.5t20 9q8 0 19 -9t21.5 -23.5t16.5 -29t6 -26.5q0 -10 -6 -24.5t-16.5 -28 t-21.5 -22.5t-19 -9t-19.5 9t-22 22.5t-17.5 28t-7 24.5zM467 1149q0 12 7 26.5t16.5 29t20.5 23.5t21 9q8 0 19.5 -9t21 -23.5t15.5 -29t6 -26.5q0 -10 -6 -24.5t-15.5 -28t-20.5 -22.5t-20 -9q-10 0 -21 9t-20.5 22.5t-16.5 28t-7 24.5z" />
<glyph unicode="&#xec;" horiz-adv-x="395" d="M0 1208l20 97q51 -66 126 -113t151 -74l-53 -53q-66 20 -128.5 53t-115.5 90zM137 0v928h121v-928h-121z" />
<glyph unicode="&#xed;" horiz-adv-x="395" d="M96 1118q78 27 152 74t127 113l20 -97q-53 -57 -115.5 -90t-127.5 -53zM137 0v928h121v-928h-121z" />
<glyph unicode="&#xee;" horiz-adv-x="395" d="M4 1114q59 31 108.5 84t86.5 115q35 -61 84 -114.5t106 -84.5l-51 -51q-41 23 -76 50.5t-63 68.5q-31 -41 -67 -69t-79 -50zM137 0v928h121v-928h-121z" />
<glyph unicode="&#xef;" horiz-adv-x="395" d="M29 1149q0 12 7 26.5t16 29t20.5 23.5t21.5 9q8 0 19.5 -9t20.5 -23.5t16.5 -29t7.5 -26.5q0 -10 -7.5 -24.5t-16.5 -28t-20.5 -22.5t-19.5 -9q-10 0 -21.5 9t-20.5 22.5t-16 28t-7 24.5zM137 0v928h121v-928h-121zM238 1149q0 12 7 26.5t16 29t20.5 23.5t19.5 9t19.5 -9 t21.5 -23.5t16.5 -29t6.5 -26.5q0 -10 -6.5 -24.5t-16.5 -28t-21.5 -22.5t-19.5 -9t-19.5 9t-20.5 22.5t-16 28t-7 24.5z" />
<glyph unicode="&#xf0;" horiz-adv-x="829" d="M66 399q0 147 68.5 253t172.5 153q45 20 109.5 38.5t115.5 24.5l-104 271l-154 -56l-26 76l151 55l-73 195h106l60 -160l135 49l26 -75l-131 -49l176 -465q23 -70 39.5 -150t16.5 -133q0 -111 -28 -193.5t-75 -139t-110.5 -84t-137.5 -27.5t-136 30.5t-106 86t-69.5 132 t-25.5 168.5zM166 399q0 -74 18.5 -134t51 -103t75.5 -66.5t92 -23.5t94.5 22.5t80 66.5t55 110.5t20.5 154.5q0 33 -8 76t-20.5 90t-28.5 95t-33 93q-45 -6 -104.5 -20.5t-100.5 -34.5q-193 -96 -192 -326z" />
<glyph unicode="&#xf1;" horiz-adv-x="835" d="M98 0v928h109l2 -99q29 45 85 80t155 35q129 0 208.5 -78t79.5 -213v-653h-121v641q0 92 -49 145.5t-145 53.5q-92 0 -148.5 -54.5t-56.5 -144.5v-641h-119zM205 1081l16 86q41 33 95.5 56.5t107.5 25.5l25 -92q41 4 86 27.5t81 52.5l-16 -86q-41 -35 -93 -57.5 t-108 -26.5l-22 94q-41 -4 -88 -27.5t-84 -52.5z" />
<glyph unicode="&#xf2;" horiz-adv-x="909" d="M63 463q0 104 29 193t81 152.5t125 99.5t159 36t157.5 -36t122.5 -99.5t80 -152.5t29 -193t-29 -192.5t-80 -152t-122.5 -99t-157.5 -35.5t-159 35.5t-125 99t-81 151.5t-29 193zM186 463q0 -82 20.5 -150.5t57.5 -119t86 -78t107 -27.5q55 0 104 27.5t86 78t57.5 119 t20.5 150.5t-20.5 151.5t-57.5 119.5t-86 78t-104 28q-57 0 -106.5 -28t-86.5 -78t-57.5 -119.5t-20.5 -151.5zM252 1208l20 97q51 -66 126 -113t151 -74l-53 -53q-66 20 -128.5 53t-115.5 90z" />
<glyph unicode="&#xf3;" horiz-adv-x="909" d="M63 463q0 104 29 193t81 152.5t125 99.5t159 36t157.5 -36t122.5 -99.5t80 -152.5t29 -193t-29 -192.5t-80 -152t-122.5 -99t-157.5 -35.5t-159 35.5t-125 99t-81 151.5t-29 193zM186 463q0 -82 20.5 -150.5t57.5 -119t86 -78t107 -27.5q55 0 104 27.5t86 78t57.5 119 t20.5 150.5t-20.5 151.5t-57.5 119.5t-86 78t-104 28q-57 0 -106.5 -28t-86.5 -78t-57.5 -119.5t-20.5 -151.5zM362 1118q76 27 151 74t126 113l20 -97q-53 -57 -115.5 -90t-127.5 -53z" />
<glyph unicode="&#xf4;" horiz-adv-x="909" d="M63 463q0 104 29 193t81 152.5t125 99.5t159 36t157.5 -36t122.5 -99.5t80 -152.5t29 -193t-29 -192.5t-80 -152t-122.5 -99t-157.5 -35.5t-159 35.5t-125 99t-81 151.5t-29 193zM186 463q0 -82 20.5 -150.5t57.5 -119t86 -78t107 -27.5q55 0 104 27.5t86 78t57.5 119 t20.5 150.5t-20.5 151.5t-57.5 119.5t-86 78t-104 28q-57 0 -106.5 -28t-86.5 -78t-57.5 -119.5t-20.5 -151.5zM264 1116q57 31 106.5 84t86.5 115q35 -61 84 -114.5t106 -84.5l-49 -51q-41 23 -77 50.5t-64 68.5q-31 -41 -67 -69t-79 -50z" />
<glyph unicode="&#xf5;" horiz-adv-x="909" d="M63 463q0 104 29 193t81 152.5t125 99.5t159 36t157.5 -36t122.5 -99.5t80 -152.5t29 -193t-29 -192.5t-80 -152t-122.5 -99t-157.5 -35.5t-159 35.5t-125 99t-81 151.5t-29 193zM186 463q0 -82 20.5 -150.5t57.5 -119t86 -78t107 -27.5q55 0 104 27.5t86 78t57.5 119 t20.5 150.5t-20.5 151.5t-57.5 119.5t-86 78t-104 28q-57 0 -106.5 -28t-86.5 -78t-57.5 -119.5t-20.5 -151.5zM250 1081l14 86q43 33 96.5 56.5t106.5 25.5l25 -92q41 4 86 27.5t81 52.5l-14 -86q-41 -35 -94 -57.5t-109 -26.5l-22 94q-41 -4 -88 -27.5t-82 -52.5z" />
<glyph unicode="&#xf6;" horiz-adv-x="909" d="M63 463q0 104 29 193t81 152.5t125 99.5t159 36t157.5 -36t122.5 -99.5t80 -152.5t29 -193t-29 -192.5t-80 -152t-122.5 -99t-157.5 -35.5t-159 35.5t-125 99t-81 151.5t-29 193zM186 463q0 -82 20.5 -150.5t57.5 -119t86 -78t107 -27.5q55 0 104 27.5t86 78t57.5 119 t20.5 150.5t-20.5 151.5t-57.5 119.5t-86 78t-104 28q-57 0 -106.5 -28t-86.5 -78t-57.5 -119.5t-20.5 -151.5zM289 1149q0 12 7 26.5t16.5 29t20.5 23.5t19 9t20.5 -9t21.5 -23.5t16.5 -29t7.5 -26.5q0 -10 -7.5 -24.5t-16.5 -28t-21.5 -22.5t-20.5 -9t-19 9t-20.5 22.5 t-16.5 28t-7 24.5zM498 1149q0 12 7 26.5t16 29t20.5 23.5t19.5 9t19.5 -9t21.5 -23.5t16.5 -29t6.5 -26.5q0 -10 -6.5 -24.5t-16.5 -28t-21.5 -22.5t-19.5 -9t-19.5 9t-20.5 22.5t-16 28t-7 24.5z" />
<glyph unicode="&#xf7;" horiz-adv-x="770" d="M74 516v102h622v-102h-622zM311 326q0 12 7.5 29.5t18.5 32.5t24.5 26.5t23.5 11.5t23.5 -11.5t24.5 -26.5t18.5 -32.5t7.5 -29.5t-7.5 -29.5t-18.5 -33t-24.5 -26t-23.5 -10.5t-23.5 10.5t-24.5 26t-18.5 32.5t-7.5 30zM311 809q0 12 7.5 29.5t18.5 33t24.5 26.5 t23.5 11t23.5 -11t24.5 -26.5t18.5 -33t7.5 -29.5t-7.5 -29.5t-18.5 -33t-24.5 -25.5t-23.5 -10t-23.5 10t-24.5 25.5t-18.5 33t-7.5 29.5z" />
<glyph unicode="&#xf8;" horiz-adv-x="905" d="M63 463q0 104 29 193t81 152.5t125 99.5t159 36q125 0 215 -72l65 105l58 -41l-70 -113q57 -63 89 -155t32 -205q0 -104 -29 -192.5t-80 -152t-122.5 -99t-157.5 -35.5q-63 0 -117.5 18t-101.5 53l-68 -104l-57 41l71 112q-57 66 -89 157t-32 202zM184 463 q0 -76 17.5 -140.5t48.5 -113.5l360 569q-68 63 -153 64q-59 0 -108.5 -28t-86.5 -79t-57.5 -120.5t-20.5 -151.5zM297 152q70 -66 160 -66q55 0 104 27.5t86 78t58.5 119t21.5 152.5q0 78 -18.5 143.5t-51.5 114.5z" />
<glyph unicode="&#xf9;" horiz-adv-x="835" d="M98 274v654h119v-641q0 -92 50 -145.5t147 -53.5q92 0 147 54.5t55 144.5v641h121v-928h-108l-4 96q-27 -45 -83.5 -78.5t-154.5 -33.5q-129 0 -209 77.5t-80 212.5zM203 1208l20 97q53 -66 127 -113t152 -74l-56 -53q-66 20 -128 53t-115 90z" />
<glyph unicode="&#xfa;" horiz-adv-x="835" d="M98 274v654h119v-641q0 -92 50 -145.5t147 -53.5q92 0 147 54.5t55 144.5v641h121v-928h-108l-4 96q-27 -45 -83.5 -78.5t-154.5 -33.5q-129 0 -209 77.5t-80 212.5zM346 1118q76 27 150.5 74t126.5 115l20 -99q-53 -57 -114.5 -90t-129.5 -53z" />
<glyph unicode="&#xfb;" horiz-adv-x="835" d="M98 274v654h119v-641q0 -92 50 -145.5t147 -53.5q92 0 147 54.5t55 144.5v641h121v-928h-108l-4 96q-27 -45 -83.5 -78.5t-154.5 -33.5q-129 0 -209 77.5t-80 212.5zM231 1116q59 31 108.5 84t86.5 115q35 -61 84 -114.5t106 -84.5l-51 -51q-41 23 -75.5 50.5t-63.5 68.5 q-31 -41 -66.5 -69t-78.5 -50z" />
<glyph unicode="&#xfc;" horiz-adv-x="835" d="M98 274v654h119v-641q0 -92 50 -145.5t147 -53.5q92 0 147 54.5t55 144.5v641h121v-928h-108l-4 96q-27 -45 -83.5 -78.5t-154.5 -33.5q-129 0 -209 77.5t-80 212.5zM254 1149q0 12 7 26.5t16.5 29t20.5 23.5t19 9t19.5 -9t22 -23.5t16.5 -29t6 -26.5q0 -10 -6 -24.5 t-16.5 -28t-21.5 -22.5t-20 -9q-8 0 -19 9t-20.5 22.5t-16.5 28t-7 24.5zM463 1149q0 12 6 26.5t16.5 29t20.5 23.5t20 9q8 0 19.5 -9t20.5 -23.5t16.5 -29t7.5 -26.5q0 -10 -7.5 -24.5t-16.5 -28t-20 -22.5t-20 -9q-10 0 -20 9t-20.5 22.5t-16.5 28t-6 24.5z" />
<glyph unicode="&#xfd;" horiz-adv-x="784" d="M-4 -360q51 20 97 54t88 87t79 128t74 177l-291 842h121l153 -451q18 -53 39 -110.5t37 -116.5h4q16 57 36 113.5t40 111.5l156 453h112l-290 -838q-43 -121 -86 -209t-91.5 -150.5t-99.5 -102.5t-108 -66zM311 1118q76 27 151 74t126 113l20 -97q-53 -57 -114.5 -90 t-128.5 -53z" />
<glyph unicode="&#xfe;" horiz-adv-x="880" d="M111 -436v1845h118v-537q39 35 94.5 53.5t118.5 18.5q72 0 139.5 -32.5t120 -95t84 -151.5t31.5 -200q0 -104 -28.5 -193.5t-80 -153t-124 -99t-158.5 -35.5q-59 0 -111.5 17t-85.5 46v-483h-118zM229 176q31 -37 82 -62.5t111 -25.5q59 0 109.5 27.5t86 78t56 120 t20.5 151.5t-20.5 150.5t-56 118.5t-86 78t-109.5 28t-108.5 -26t-84.5 -64v-574z" />
<glyph unicode="&#xff;" horiz-adv-x="784" d="M-4 -360q51 20 97 54t88 87t79 128t74 177l-291 842h121l153 -451q18 -53 39 -110.5t37 -116.5h4q16 57 36 113.5t40 111.5l156 453h112l-290 -838q-43 -121 -86 -209t-91.5 -150.5t-99.5 -102.5t-108 -66zM225 1143q0 10 7.5 25.5t17.5 28.5t21.5 22.5t19.5 9.5 t19.5 -9.5t20.5 -22.5t16 -28.5t7 -25.5t-7 -24.5t-16 -28t-20.5 -22.5t-19.5 -9t-19.5 9t-21.5 22.5t-17.5 28t-7.5 24.5zM434 1143q0 10 7.5 25.5t16.5 28.5t20 22.5t22 9.5q8 0 19 -9.5t20.5 -22.5t15.5 -28.5t6 -25.5t-6 -24.5t-15.5 -28t-20.5 -22.5t-19 -9 q-10 0 -21.5 9t-20.5 22.5t-16.5 28t-7.5 24.5z" />
<glyph unicode="&#x152;" horiz-adv-x="1542" d="M74 655q0 150 41 273t113.5 211t170 137t207.5 49q86 0 162 -26.5t139 -73.5v82h551v-111h-430v-483h354v-111h-354v-491h485v-111h-606v84q-63 -49 -139 -75.5t-162 -26.5q-111 0 -208 49t-169.5 137t-113.5 212t-41 275zM203 655q0 -125 32.5 -228t88 -177t129 -115 t157.5 -41q86 0 162 36t131 97v854q-55 59 -131 96t-162 37q-84 0 -157.5 -40.5t-129 -114.5t-88 -176.5t-32.5 -227.5z" />
<glyph unicode="&#x153;" horiz-adv-x="1464" d="M63 463q0 104 29 193t81 152.5t125 99.5t159 36q111 0 198.5 -60.5t128.5 -158.5q41 100 124 159.5t177 59.5q78 0 137.5 -29.5t99.5 -78t59.5 -109.5t19.5 -127q0 -14 -1 -36.5t-3 -35.5l-70 -67h-479q-4 -72 14.5 -139.5t56 -119.5t93 -83t123.5 -31q129 0 223 80 l-27 -129q-41 -27 -91 -41t-122 -14q-111 0 -199 60t-133 161q-43 -98 -131 -159.5t-198 -61.5q-86 0 -159 35.5t-125 99t-81 151.5t-29 193zM186 463q0 -82 20.5 -150.5t57.5 -119t86 -78t107 -27.5q55 0 104 27.5t86 78t57.5 119t20.5 150.5t-20.5 151.5t-57.5 119.5 t-86 78t-104 28q-57 0 -106.5 -28t-86.5 -78t-57.5 -119.5t-20.5 -151.5zM854 559h426q2 6 3 18.5t1 18.5q0 43 -12 87t-37 80t-60.5 58.5t-84.5 22.5q-45 0 -85 -23.5t-72 -63.5t-52.5 -91.5t-26.5 -106.5z" />
<glyph unicode="&#x178;" horiz-adv-x="946" d="M23 1307h135l211 -392q29 -51 56.5 -101t49.5 -97h4q23 47 51.5 99t53.5 99l213 392h127l-389 -713v-594h-125v592zM273 1540q0 12 8 31t19.5 34t24.5 26.5t23 11.5t23.5 -11.5t25 -26.5t19.5 -34t8 -31t-8 -29.5t-19.5 -32.5t-24.5 -25.5t-24 -10.5q-10 0 -23 10.5 t-24.5 25.5t-19.5 32.5t-8 29.5zM518 1540q0 12 8.5 31t19.5 34t24.5 26.5t23.5 11.5t22.5 -11.5t24 -26.5t19.5 -34t8 -31t-8 -29.5t-19.5 -32.5t-24 -25.5t-22.5 -10.5t-23.5 10.5t-24.5 25.5t-19.5 32.5t-8.5 29.5z" />
<glyph unicode="&#x2c6;" d="M84 1092q68 35 126 98t101 135q41 -72 99.5 -134.5t126.5 -98.5l-60 -60q-49 27 -90 59.5t-76 79.5q-35 -47 -76.5 -79.5t-93.5 -59.5z" />
<glyph unicode="&#x2dc;" d="M70 1051l18 100q49 39 111.5 66.5t126.5 31.5l28 -110q49 4 102.5 31.5t96.5 62.5l-18 -100q-47 -41 -110 -68t-128 -31l-27 111q-49 -4 -103 -32t-97 -62z" />
<glyph unicode="&#x2000;" horiz-adv-x="902" />
<glyph unicode="&#x2001;" horiz-adv-x="1805" />
<glyph unicode="&#x2002;" horiz-adv-x="902" />
<glyph unicode="&#x2003;" horiz-adv-x="1805" />
<glyph unicode="&#x2004;" horiz-adv-x="601" />
<glyph unicode="&#x2005;" horiz-adv-x="451" />
<glyph unicode="&#x2006;" horiz-adv-x="300" />
<glyph unicode="&#x2007;" horiz-adv-x="300" />
<glyph unicode="&#x2008;" horiz-adv-x="225" />
<glyph unicode="&#x2009;" horiz-adv-x="361" />
<glyph unicode="&#x200a;" horiz-adv-x="100" />
<glyph unicode="&#x2010;" horiz-adv-x="563" d="M74 516v102h415v-102h-415z" />
<glyph unicode="&#x2011;" horiz-adv-x="563" d="M74 516v102h415v-102h-415z" />
<glyph unicode="&#x2012;" horiz-adv-x="563" d="M74 516v102h415v-102h-415z" />
<glyph unicode="&#x2013;" horiz-adv-x="950" d="M74 516v102h805v-102h-805z" />
<glyph unicode="&#x2014;" horiz-adv-x="1341" d="M74 516v102h1194v-102h-1194z" />
<glyph unicode="&#x2018;" horiz-adv-x="333" d="M82 1092q0 29 12 69.5t32.5 84.5t48.5 87t58 78l56 -6q-41 -53 -70 -114.5t-33 -104.5q18 -8 43 -38t25 -56q0 -14 -9 -34t-22.5 -38.5t-28 -30.5t-26.5 -12q-10 0 -25.5 12t-29 29.5t-22.5 37t-9 36.5z" />
<glyph unicode="&#x2019;" horiz-adv-x="333" d="M47 993q41 51 67.5 111.5t32.5 105.5q-20 8 -43.5 38t-23.5 55q0 14 9 34.5t22.5 39t28 30.5t26.5 12t26.5 -12t29 -29.5t23.5 -38t9 -36.5q0 -29 -12.5 -69t-33 -84t-49 -87t-59.5 -78z" />
<glyph unicode="&#x201a;" horiz-adv-x="333" d="M47 -217q41 53 67.5 112.5t32.5 106.5q-20 6 -43.5 36t-23.5 58q0 14 9 34t22.5 37t28 29.5t26.5 12.5t26.5 -12.5t29 -29.5t23.5 -37t9 -34q0 -31 -12.5 -70.5t-33 -83.5t-49 -88t-59.5 -79z" />
<glyph unicode="&#x201c;" horiz-adv-x="612" d="M82 1092q0 29 12 69.5t32.5 84.5t48.5 87t58 78l56 -6q-41 -53 -68.5 -113.5t-32.5 -105.5q16 -8 41 -38t25 -56q0 -14 -9 -34t-22.5 -38.5t-28 -30.5t-26.5 -12q-10 0 -25.5 12t-29 29.5t-22.5 37t-9 36.5zM360 1094q0 29 12.5 68.5t33 83.5t47 88t57.5 79l55 -8 q-41 -53 -68.5 -113.5t-31.5 -105.5q18 -8 42.5 -38t24.5 -54q0 -16 -9 -36t-22.5 -38.5t-27.5 -30.5t-27 -12q-10 0 -25 12t-28.5 29.5t-23 38t-9.5 37.5z" />
<glyph unicode="&#x201d;" horiz-adv-x="612" d="M47 993q41 51 67.5 111.5t32.5 105.5q-20 8 -43.5 38t-23.5 55q0 14 9 34.5t22.5 39t28 30.5t26.5 12q10 0 25.5 -12t28.5 -29.5t23.5 -38t10.5 -36.5q0 -29 -12.5 -69t-33 -84t-49 -87t-59.5 -78zM326 993q41 51 68.5 112.5t31.5 104.5q-20 8 -44 38t-24 55 q0 14 9.5 34.5t22.5 39t27.5 30.5t26.5 12q10 0 25.5 -12t29 -29.5t22.5 -38t9 -36.5q0 -29 -12 -69t-32.5 -84t-48 -87t-58.5 -78z" />
<glyph unicode="&#x201e;" horiz-adv-x="600" d="M43 -217q39 51 66.5 111.5t33.5 107.5q-20 6 -43.5 36t-23.5 58q0 14 9 34t22.5 37t28 29.5t26.5 12.5q10 0 25.5 -12.5t28.5 -29.5t22.5 -37t9.5 -34q0 -31 -12.5 -70.5t-33 -83.5t-48 -88t-58.5 -79zM322 -217q39 53 66.5 113.5t33.5 105.5q-20 6 -44 36t-24 58 q0 14 9.5 34t22.5 37t27.5 29.5t26.5 12.5q10 0 25.5 -12.5t29 -29.5t22.5 -37t9 -34q0 -29 -12 -69.5t-32.5 -84.5t-48 -88t-58.5 -79z" />
<glyph unicode="&#x2022;" horiz-adv-x="608" d="M86 567q0 117 61.5 190.5t157.5 73.5t156.5 -73.5t60.5 -190.5t-60.5 -190.5t-156.5 -73.5t-157.5 74t-61.5 190z" />
<glyph unicode="&#x2026;" horiz-adv-x="915" d="M78 96q0 14 9 34t22.5 37t28 29.5t26.5 12.5t27.5 -12.5t28.5 -29.5t22.5 -37t9.5 -34t-9.5 -33.5t-22.5 -37t-28.5 -29.5t-27.5 -12t-26.5 12t-28 29.5t-22.5 37t-9 33.5zM371 96q0 14 9 34t22.5 37t27.5 29.5t27 12.5q12 0 27.5 -12.5t27.5 -29.5t21.5 -37t9.5 -34 t-9.5 -33.5t-21.5 -37t-27.5 -29.5t-27.5 -12t-26.5 12t-28 29.5t-22.5 37t-9 33.5zM664 96q0 14 9 34t21.5 37t27.5 29.5t28 12.5q12 0 27.5 -12.5t27.5 -29.5t21.5 -37t9.5 -34t-9.5 -33.5t-21.5 -37t-27.5 -29.5t-27.5 -12t-27.5 12t-28 29.5t-21.5 37t-9 33.5z" />
<glyph unicode="&#x202f;" horiz-adv-x="361" />
<glyph unicode="&#x2039;" horiz-adv-x="401" d="M10 567q88 63 163 151.5t120 180.5l63 -65q-33 -78 -84 -149t-108 -118q57 -47 108.5 -117.5t83.5 -148.5l-63 -65q-45 92 -120 182t-163 149z" />
<glyph unicode="&#x203a;" horiz-adv-x="401" d="M43 301q33 78 84 148.5t111 117.5q-59 47 -110.5 118t-84.5 149l66 65q45 -92 119.5 -180.5t162.5 -151.5q-88 -59 -162.5 -149t-119.5 -182z" />
<glyph unicode="&#x205f;" horiz-adv-x="451" />
<glyph unicode="&#x2122;" horiz-adv-x="722" d="M37 1260v47h239v-47h-92v-336h-55v336h-92zM305 924l23 383h43l108 -299l107 299h45l22 -383h-51l-14 264l-94 -266h-33l-90 264l-17 -262h-49z" />
<glyph unicode="&#x25fc;" horiz-adv-x="931" d="M0 0v932h932v-932h-932z" />
</font>
</defs>
</svg>
